Важное объявление!
У Нас Все раздачи мультитрекерные, при нуле пиров в релизах, можете смело вставать на закачку!
 
Автор Сообщение

HUNTER

Стаж:
4 года 4 месяца
Сообщений:
56808

Репутация: 101

[+] [-]
Вне форума [Профиль] [ЛС]

Дневник мамы первоклассника--

  • Год выпуска: 2014
  • Страна: Россия
  • Жанр: детский, мелодрама, семейный
  • Продолжительность: 01:18:12
  • Перевод: Оригинал [Лицензия]
  • Субтитры: Нет
  • В ролях: Светлана Ходченкова, Дмитрий Ендальцев, Дима Полунин, Елена Яковлева, Виктор Сухоруков, Галина Польских, Олеся Жураковская, Софья Мицкевич, Арсений Мурзин
  • Режиссёр: Андрей Силкин

    События в картине разворачиваются в хронологическом порядке с первого родительского собрания до последнего учебного дня первоклассника, освещая самые яркие дни мальчика, его мамы и папы.
    Семья Васи — главного героя картины — понимает, как беззаботно им раньше жилось и сколько проблем и тревог приносит школьная пора. За год перед Васей как будто в миниатюре разворачивается целая жизнь. Дружба, первая любовь, муки творчества, предательство, жизнь в коллективе, упорная работа, преодоление «препятствий» — вот что, буквально, как снежный ком, сваливается на голову маленького мальчика. Кто поддержит? Кто объяснит? Кто подскажет? Только единение семьи и школы может помочь ребенку правильно расставить акценты и справиться с трудностями, что в свою очередь вызывает у него гордость за родителей и учителей. Он начинает чувствовать себя увереннее, адаптируясь ко взрослой жизни. Время проходит незаметно. Находясь в лирическом настроении, родители замечают: «Надо же, уже первый класс закончился…
    --
  • Качество: DVDRip
  • Формат: AVI
  • Видео кодек: XviD
  • Аудио кодек: AC3
  • Видео: 2045 kb/s, 720х384 at 25.000 fps
  • Аудио: АС3, 448 Кбит/сек, 6 канала(ов), 48,0 КГц
--

MediaInfo

General
Complete name : C:\Users\Дима\Desktop\Dnevnik.mamy.pervoklassnika.2014.O.DVDRip.1400Mb.avi
Format : AVI
Format/Info : Audio Video Interleave
File size : 1.37 GiB
Duration : 1h 18mn
Overall bit rate : 2 503 Kbps
Writing application : VirtualDubMod 1.5.10.3 | http://www.virtualdub-fr.org || (build 2550/release)
Writing library : VirtualDubMod build 2550/release
Video
ID : 0
Format : MPEG-4 Visual
Format profile : Advanced Simple@L5
Format settings, BVOP : Yes
Format settings, QPel : No
Format settings, GMC : No warppoints
Format settings, Matrix : Default (MPEG)
Codec ID : XVID
Codec ID/Hint : XviD
Duration : 1h 18mn
Bit rate : 2 045 Kbps
Width : 720 pixels
Height : 384 pixels
Display aspect ratio : 1.85:1
Frame rate : 25.000 fps
Color space : YUV
Chroma subsampling : 4:2:0
Bit depth : 8 bits
Scan type : Progressive
Compression mode : Lossy
Bits/(Pixel*Frame) : 0.296
Stream size : 1.12 GiB (82%)
Writing library : XviD 1.2.1 (UTC 2008-12-04)
Audio
ID : 1
Format : AC-3
Format/Info : Audio Coding 3
Mode extension : CM (complete main)
Format settings, Endianness : Big
Codec ID : 2000
Duration : 1h 18mn
Bit rate mode : Constant
Bit rate : 448 Kbps
Channel(s) : 6 channels
Channel positions : Front: L C R, Side: L R, LFE
Sampling rate : 48.0 KHz
Bit depth : 16 bits
Compression mode : Lossy
Stream size : 251 MiB (18%)
Alignment : Split accross interleaves
Interleave, duration : 40 ms (1.00 video frame)
Interleave, preload duration : 500 ms

Скриншоты:

-Источник:

_________________
Показать сообщения:    

Текущее время: Сегодня 09:13

Часовой пояс: GMT



Вы не можете начинать темы
Вы не можете отвечать на сообщения
Вы не можете редактировать свои сообщения
Вы не можете удалять свои сообщения
Вы не можете голосовать в опросах
Вы не можете прикреплять файлы к сообщениям
Вы не можете скачивать файлы