Важное объявление!
У Нас Все раздачи мультитрекерные, при нуле пиров в релизах, можете смело вставать на закачку!
 
Автор Сообщение

HUNTER

Стаж:
4 года 4 месяца
Сообщений:
56783

Репутация: 101

[+] [-]
Вне форума [Профиль] [ЛС]

Дисковые Войны: Мстители / Disk Wars: Avengers / ディスク・ウォーズ: アベンジャーズ
Страна: Япония
Год выпуска: 2014 г.
Жанр: приключения
Тип: TV
Продолжительность: 7 эп. из 13 (по ~ 22 минуты)
Режиссер: Комура Тосиаки
Студия:

Описание: Аниме-экранизация Вселенной Marvel. Локи, сводный брат Тора, разрабатывает коварный план по захвату Земли – человечество оказалось на грани порабощения, и только лучшие из лучших могут спасти человечество. Под знаменами Мстителей собираются выдающиеся поборники справедливости и добра, чтобы отразить атаку – Железный Человек, Капитан Америка, Тор, Невероятный Халк и Человек-Паук. Вместе с группой подростков супергерои вступают в войну с захватчиком, ведь на кону – судьба всего мира!
Качество: HDTVRip
Тип релиза: Без хардсаба
Формат видео: MP4
Наличие линковки: Нет
Релиз/Автор рипа: Zero-Raws
Видео: H264/AVC, 1280x720, ~1400 kbps, 23.976 fps, 8 bit
Аудио: AAC; ~192 kbps, 48000Hz, 2 ch, язык японский
Субтитры: ASS, внешние, язык субтитров русский ; Перевод: YakuSub Studio
Подробные тех. данные
ОбщееПолное имя : F:\FILMS\ANIME\Disk Wars Avengers\[Zero-Raws] Disk Wars Avengers - 01 (TX 1280x720 x264 AAC).mp4Формат : MPEG-4Профиль формата : Base MediaИдентификатор кодека : isomРазмер файла : 268 МбайтПродолжительность : 22 м.Режим общего битрейта : ПеременныйОбщий поток : 1675 Кбит/секДата кодирования : UTC 2014-04-03 16:21:53Дата пометки : UTC 2014-04-03 16:21:53
ВидеоИдентификатор : 1Формат : AVCФормат/Информация : Advanced Video CodecПрофиль формата : High@L3.1Параметр CABAC формата : ДаПараметр ReFrames формата : 4 кадраИдентификатор кодека : avc1Идентификатор кодека/Информация : Advanced Video CodingПродолжительность : 22 м.Битрейт : 1483 Кбит/секМаксимальный битрейт : 12,6 Мбит/секШирина : 1280 пикселейВысота : 720 пикселейСоотношение сторон : 16:9Режим частоты кадров : ПостоянныйЧастота кадров : 23,976 кадра/секЦветовое пространство : YUVСубдискретизация насыщенности : 4:2:0Битовая глубина : 8 битТип развёртки : ПрогрессивнаяБит/(Пиксели*Кадры) : 0.067Размер потока : 237 Мбайт (89%)Библиотека кодирования : x264 core 133 r2334 a3ac64bНастройки программы : cabac=1 / ref=3 / deblock=1:0:0 / analyse=0x3:0x113 / me=hex / subme=7 / psy=1 / psy_rd=1.00:0.00 / mixed_ref=1 / me_range=16 / chroma_me=1 / trellis=1 / 8x8dct=1 / cqm=0 / deadzone=21,11 / fast_pskip=1 / chroma_qp_offset=-2 / threads=12 / lookahead_threads=2 / sliced_threads=0 / nr=0 / decimate=1 / interlaced=0 / bluray_compat=0 / constrained_intra=0 / bframes=3 / b_pyramid=2 / b_adapt=1 / b_bias=0 / direct=1 / weightb=1 / open_gop=0 / weightp=2 / keyint=250 / keyint_min=23 / scenecut=40 / intra_refresh=0 / rc_lookahead=40 / rc=crf / mbtree=1 / crf=19.5 / qcomp=0.60 / qpmin=0 / qpmax=69 / qpstep=4 / ip_ratio=1.40 / aq=1:1.00Дата кодирования : UTC 2014-04-03 16:00:43Дата пометки : UTC 2014-04-03 16:21:54
АудиоИдентификатор : 2Формат : AACФормат/Информация : Advanced Audio CodecПрофиль формата : LCИдентификатор кодека : 40Продолжительность : 22 м.Вид битрейта : ПеременныйБитрейт : 192 Кбит/секМаксимальный битрейт : 197 Кбит/секКаналы : 2 каналаРасположение каналов : Front: L RЧастота : 48,0 КГцМетод сжатия : С потерямиРазмер потока : 30,1 Мбайт (11%)Заголовок : aac#trackID=1:lang=Japanese@GPAC0.5.1-DEV-rev4708Язык : JapaneseДата кодирования : UTC 2014-04-03 16:21:53Дата пометки : UTC 2014-04-03 16:21:54
Список эпизодов
1. Могущественнейшие из героев! (The Mightiest of Heroes!)
2. Все герои повержены?! (Heroes Annihilated!?)
3. Железный человек, перерождение! (Iron Man, Reborn!)
4. Помощь Соколиного Глаза! (Re-enforcement Hawkeye)
5. Нисхождение Могучего Тора! (Mighty Thor Descends)
6. Буйство Великого Халка! (Hulk Runs Wild)
7. Халк против Капитана! (Hulk Versus Captain)

8. Мстители Собираются (Avengers Assemble)
9. Спайдермен Пропал (Spider-Man is Missing)
Скриншоты

_________________
Показать сообщения:    

Текущее время: Сегодня 20:41

Часовой пояс: GMT



Вы не можете начинать темы
Вы не можете отвечать на сообщения
Вы не можете редактировать свои сообщения
Вы не можете удалять свои сообщения
Вы не можете голосовать в опросах
Вы не можете прикреплять файлы к сообщениям
Вы не можете скачивать файлы