Важное объявление!
У Нас Все раздачи мультитрекерные, при нуле пиров в релизах, можете смело вставать на закачку!
 
Автор Сообщение

димитри37

Стаж:
3 года 9 месяцев
Сообщений:
1237

Репутация: 127

[+] [-]
Вне форума [Профиль] [ЛС]

Дилетанты / Игры дилетантов / Amateur
Страна: США, Великобритания, Франция
Жанр: триллер, драма, комедия, криминал
Год выпуска: 1994
Продолжительность: 01:45:09
Перевод: Профессиональный (двухголосый закадровый) по заказу "Русский репортаж"
Cубтитры: нет
Режиссер: Хэл Хартли / Hal Hartley
В ролях: Изабель Юппер, Мартин Донован, Элина Ловенсон, Дэмиэн Янг, Чак Монтгомери, Дэйв Симондз, Памела Стюарт, Эрика Гимпел, Жан Лесли Хардинг, Терри Александр
Описание: Когда Томас приходит в себя, он обнаруживает, что весь в крови и совершенно ничего не помнит. Его берет под свою опеку Изабель, бывшая монахиня, считающая себя девственницей-нимфоманкой и зарабатывающая на жизнь сочинением рассказов для порнографического журнала.
Восстанавливая по кусочкам прошлое Томаса, Изабель узнает, что он был режиссером крутого порно, и что его жена - знойная пронозвезда София, уверенная, что убила мужа, пустилась в бега. А тем временем банда киллеров пытается прикончить Томаса из-за таинственных дискет стоимостью в миллион долларов.

Качество видео: BDRip
Формат видео: AVI
Видео кодек: XviD build 64
Аудио кодек : AC3 Dolby Digital
Видео: 720x400 (1.80:1), 23.976 fps, XviD build 64 ~1788 kbps avg, 0.26 bit/pixel
Аудио : 48 kHz, AC3 Dolby Digital, 2/0 (L,R) ch, ~192 kbps

MI

Код:
Format                                   : AVI
Format/Info                              : Audio Video Interleave
File size                                : 1.46 GiB
Duration                                 : 1h 45mn
Overall bit rate                         : 1 990 Kbps
Writing application                      : VirtualDubMod 1.5.10.3 | www.virtualdub-fr.org || (build 2550/release)
Writing library                          : VirtualDubMod build 2550/release
Video
ID                                       : 0
Format                                   : MPEG-4 Visual
Format profile                           : Advanced Simple@L5
Format settings, BVOP                    : 2
Format settings, QPel                    : No
Format settings, GMC                     : No warppoints
Format settings, Matrix                  : Custom
Codec ID                                 : XVID
Codec ID/Hint                            : XviD
Duration                                 : 1h 45mn
Bit rate                                 : 1 789 Kbps
Width                                    : 720 pixels
Height                                   : 400 pixels
Display aspect ratio                     : 16:9
Frame rate                               : 23.976 fps
Color space                              : YUV
Chroma subsampling                       : 4:2:0
Bit depth                                : 8 bits
Scan type                                : Progressive
Compression mode                         : Lossy
Bits/(Pixel*Frame)                       : 0.259
Stream size                              : 1.31 GiB (90%)
Writing library                          : XviD 64
Audio
ID                                       : 1
Format                                   : AC-3
Format/Info                              : Audio Coding 3
Mode extension                           : CM (complete main)
Codec ID                                 : 2000
Duration                                 : 1h 45mn
Bit rate mode                            : Constant
Bit rate                                 : 192 Kbps
Channel(s)                               : 2 channels
Channel positions                        : Front: L R
Sampling rate                            : 48.0 KHz
Bit depth                                : 16 bits
Compression mode                         : Lossy
Stream size                              : 144 MiB (10%)
Alignment                                : Split accross interleaves
Interleave, duration                     : 42 ms (1.00 video frame)
Interleave, preload duration             : 500 ms

Скриншоты

-
Показать сообщения:    

Текущее время: Сегодня 14:04

Часовой пояс: GMT



Вы не можете начинать темы
Вы не можете отвечать на сообщения
Вы не можете редактировать свои сообщения
Вы не можете удалять свои сообщения
Вы не можете голосовать в опросах
Вы не можете прикреплять файлы к сообщениям
Вы не можете скачивать файлы