Важное объявление!
У Нас Все раздачи мультитрекерные, при нуле пиров в релизах, можете смело вставать на закачку!
 
Автор Сообщение

ForZe

Стаж:
4 года 4 месяца
Сообщений:
182

Репутация: 30

[+] [-]
Вне форума [Профиль] [ЛС]

ДиктаторГод выпуска: 2012
Производство: США / Four by Two Films, Kanzaman S.A.
Жанр: Комедия
Продолжительность: 01:33:47
Перевод: Профессиональный (полное дублирование) лицензия
Субтитры: Английские-Режиссер:
Ларри Чарльз
В ролях:
Саша Барон Коэн, Анна Фэрис, Бен Кингсли, Саид Бадрия, Мишель Берг, Роки Ситрон, Liam Campora, Аасиф Мандви, Ризван Манжи, Рик Чэмберс
О фильме:

Героическая история диктатора, который рискует своей жизнью, чтобы ни в коем случае не допустить демократию в свою столь любовно угнетаемую страну.-Бюджет: $65 000 000 -
Официальный сайт-Качество: BDRip-AVC [Blu-Ray Remux]
Формат: MKV
Видео: H.264, 1056x440 (2,40:1), 23,976 кадр/сек, 2063 Кбит/сек, 0.185 bit/pixel
Аудио#1: 48 kHz, AC3 Dolby Digital, 3/2 (L,C,R,l,r) + LFE ch, ~448.00 kbps avg | RUS
Аудио#2: 48 kHz, AC3 Dolby Digital, 3/2 (L,C,R,l,r) + LFE ch, ~448.00 kbps avg | ENG (narod.ru)
--

MI

Общее
Уникальный идентификатор : 237221340050467770393622989672446048341 (0xB2772B10CC9C01DF9F6D2AB305A63855)
Полное имя : Diktator.2012.BDRip.x264.potroks.mkv
Формат : Matroska
Версия формата : Version 2
Размер файла : 1,46 Гбайт
Продолжительность : 1 ч. 23 м.
Общий поток : 2513 Кбит/сек
Название фильма : -=POTROKS=-
Дата кодирования : UTC 2012-08-16 06:15:02
Программа кодирования : mkvmerge v5.6.0 ('Kenya Kane') built on May 27 2012 16:44:04
Библиотека кодирования : libebml v1.2.3 + libmatroska v1.3.0
Видео
Идентификатор : 1
Формат : AVC
Формат/Информация : Advanced Video Codec
Профиль формата : High@L4.1
Параметр CABAC формата : Да
Параметр ReFrames формата : 9 кадров
Идентификатор кодека : V_MPEG4/ISO/AVC
Продолжительность : 1 ч. 23 м.
Битрейт : 2063 Кбит/сек
Ширина : 1056 пикселей
Высота : 440 пикселей
Соотношение сторон : 2,40:1
Соотношение сторон в оригинале : 2,40:1
Режим частоты кадров : Переменный
Частота кадров : 23,976 кадра/сек
Цветовое пространство : YUV
Субдискретизация насыщенности : 4:2:0
Битовая глубина : 8 бит
Тип развёртки : Прогрессивная
Бит/(Пиксели*Кадры) : 0.185
Размер потока : 1,17 Гбайт (80%)
Заголовок : Diktator.2012.BDRip.x264.potroks
Библиотека кодирования : x264 core 116 r2019M 9cc407d
Настройки программы : cabac=1 / ref=10 / deblock=1:-2:-2 / analyse=0x3:0x133 / me=umh / subme=10 / psy=1 / psy_rd=1.00:0.00 / mixed_ref=1 / me_range=32 / chroma_me=1 / trellis=2 / 8x8dct=1 / cqm=0 / deadzone=21,11 / fast_pskip=0 / chroma_qp_offset=-2 / threads=8 / sliced_threads=0 / nr=0 / decimate=1 / interlaced=0 / bluray_compat=0 / constrained_intra=0 / bframes=11 / b_pyramid=1 / b_adapt=2 / b_bias=0 / direct=3 / weightb=1 / open_gop=0 / weightp=2 / keyint=240 / keyint_min=23 / scenecut=40 / intra_refresh=0 / rc_lookahead=100 / rc=2pass / mbtree=1 / bitrate=2063 / ratetol=1.0 / qcomp=0.70 / qpmin=10 / qpmax=51 / qpstep=4 / cplxblur=20.0 / qblur=0.5 / vbv_maxrate=20000 / vbv_bufsize=20000 / nal_hrd=none / ip_ratio=1.35 / aq=1:1.00
Язык : English
Default : Да
Forced : Нет
Аудио
Идентификатор : 2
Формат : AC-3
Формат/Информация : Audio Coding 3
Расширение режима : CM (complete main)
Идентификатор кодека : A_AC3
Продолжительность : 1 ч. 23 м.
Вид битрейта : Постоянный
Битрейт : 448 Кбит/сек
Каналы : 6 каналов
Расположение каналов : Front: L C R, Side: L R, LFE
Частота : 48,0 КГц
Битовая глубина : 16 бит
Метод сжатия : С потерями
Размер потока : 267 Мбайт (18%)
Заголовок : Dub
Язык : Russian
Default : Да
Forced : Да
Текст
Идентификатор : 3
Формат : UTF-8
Идентификатор кодека : S_TEXT/UTF8
Идентификатор кодека/Информация : UTF-8 Plain Text
Язык : English
Default : Нет
Forced : Нет

_________________
Отдам инвайты на Dota 2! Если кому нужны пишите в лс


Последний раз редактировалось: ForZe (2012-10-02 16:48), всего редактировалось 1 раз

VitalIX

Стаж:
4 года 2 месяца
Сообщений:
60

Репутация: 9

[+] [-]
Вне форума [Профиль] [ЛС]

классный фильм. автору релиза респект.

_________________
Подпись отключена за нарушение правил форума

Shalun

Стаж:
4 года 4 месяца
Сообщений:
802

Репутация: 123

[+] [-]
Вне форума [Профиль] [ЛС]

а почему нет выделенного названия фильма в самом верху?

_________________

ForZe

Стаж:
4 года 4 месяца
Сообщений:
182

Репутация: 30

[+] [-]
Вне форума [Профиль] [ЛС]

wawe, рад угодить!!!
Shalun, подправил)

_________________
Отдам инвайты на Dota 2! Если кому нужны пишите в лс
Показать сообщения:    

Текущее время: Сегодня 19:46

Часовой пояс: GMT



Вы не можете начинать темы
Вы не можете отвечать на сообщения
Вы не можете редактировать свои сообщения
Вы не можете удалять свои сообщения
Вы не можете голосовать в опросах
Вы не можете прикреплять файлы к сообщениям
Вы не можете скачивать файлы