Важное объявление!
У Нас Все раздачи мультитрекерные, при нуле пиров в релизах, можете смело вставать на закачку!
 
Автор Сообщение

HUNTER

Стаж:
4 года 4 месяца
Сообщений:
56839

Репутация: 101

[+] [-]
Вне форума [Профиль] [ЛС]

Дикая грация / Жестокое милосердие / Savage Grace
Страна: Испания, США, Франция
Студия: 120dB Films, aContraluz Films S.L. и др.
Жанр: драма
Год выпуска: 2007
Продолжительность: 01:37:35
Перевод: Профессиональный (двухголосый закадровый) студия Инис по заказу Союз-Видео
Cубтитры: русские, английские
Оригинальная аудиодорожка: английский
Режиссер: Том Кэлин / Tom Kalin
В ролях: Джулианна Мур, Стивен Диллэйн, Эдди Редмэйн, Энн Рейд, Мартин Хубер, Минни Маркс, Джим Арнольд, Мапи Галан, Барни Кларк, Абель Фолк, Белен Руэда, Симон Андреу
Описание: История фильма основанного на реальной истории, события которой разворачивались в Лондоне 1972 года.
Молодая красавица Барбара Дэйли выходит замуж за богатого промышленника и наследника огромного состояния. Супружеская пара вращается в высших кругах общества, не отказывая себе во всевозможных удовольствиях. Их отношения нельзя назвать обычными: внезапно возникающие романы на стороне, случайный секс и сменяющие их приступы ревности и страсти у обоих супругов. У них растет сын, который поневоле впитывает все происходящее и по-своему воспринимает.
С возрастом он все больше убеждается, что девушки его не интересуют, и склоняется к нетрадиционной ориентации. Видя увлечения своего сына и пытаясь предотвратить это, Барбара решается соблазнить его, не думая о том, какую страшную трагедию она может навлечь, переступив эту запретную черту.


Sample
Тип релиза: WEB-DL 720p
Контейнер: MKV
Видео: MPEG4 AVC Video, H264, 16:9, 1280x686, 23.976 fps, 3974 kbps
Аудио: Russian (AC3, 6 ch, 448 kbps, 16 bits, 48.0 KHz) - DVO
Аудио 2: English (AC3, 2 ch, 192 kbps, 16 bits, 48.0 KHz) - оригинал
Формат субтитров: softsub (SRT)

MediaInfo

General
Unique ID : 182063025251358930558250697550075360015 (0x88F8102E83546CF08F56353E6D85730F)
Complete name : K:\Savage Grace 2007 WEB-DL 720p.mkv
Format : Matroska
Format version : Version 4 / Version 2
File size : 3.21 GiB
Duration : 1h 37mn
Overall bit rate : 4 708 Kbps
Encoded date : UTC 2015-10-06 16:47:45
Writing application : mkvmerge v6.1.0 ('Old Devil') built on Mar 2 2013 14:32:37
Writing library : libebml v1.3.0 + libmatroska v1.4.0
Video
ID : 1
Format : AVC
Format/Info : Advanced Video Codec
Format profile : High@L3.1
Format settings, CABAC : No
Format settings, ReFrames : 2 frames
Codec ID : V_MPEG4/ISO/AVC
Duration : 1h 37mn
Bit rate : 3 974 Kbps
Width : 1 280 pixels
Height : 686 pixels
Display aspect ratio : 1.85:1
Frame rate mode : Constant
Frame rate : 23.976 fps
Color space : YUV
Chroma subsampling : 4:2:0
Bit depth : 8 bits
Scan type : Progressive
Bits/(Pixel*Frame) : 0.189
Stream size : 2.71 GiB (84%)
Language : English
Default : Yes
Forced : No
Color primaries : BT.709
Transfer characteristics : BT.709
Matrix coefficients : BT.709
Audio #1
ID : 2
Format : AC-3
Format/Info : Audio Coding 3
Mode extension : CM (complete main)
Format settings, Endianness : Big
Codec ID : A_AC3
Duration : 1h 37mn
Bit rate mode : Constant
Bit rate : 448 Kbps
Channel count : 6 channels
Channel positions : Front: L C R, Side: L R, LFE
Sampling rate : 48.0 KHz
Bit depth : 16 bits
Compression mode : Lossy
Stream size : 313 MiB (10%)
Language : Russian
Default : Yes
Forced : No
Audio #2
ID : 3
Format : AC-3
Format/Info : Audio Coding 3
Mode extension : CM (complete main)
Format settings, Endianness : Big
Codec ID : A_AC3
Duration : 1h 37mn
Bit rate mode : Constant
Bit rate : 192 Kbps
Channel count : 2 channels
Channel positions : Front: L R
Sampling rate : 48.0 KHz
Bit depth : 16 bits
Compression mode : Lossy
Stream size : 134 MiB (4%)
Language : English
Default : No
Forced : No
Text #1
ID : 4
Format : UTF-8
Codec ID : S_TEXT/UTF8
Codec ID/Info : UTF-8 Plain Text
Language : Russian
Default : No
Forced : No
Text #2
ID : 5
Format : UTF-8
Codec ID : S_TEXT/UTF8
Codec ID/Info : UTF-8 Plain Text
Language : English
Default : No
Forced : No
Menu
00:00:00.000 : en:An Angel
00:05:11.000 : en:Dining Out
00:11:58.000 : en:Mothers and Fathers
00:17:54.000 : en:Speaking French
00:26:55.000 : en:Blanca
00:32:51.000 : en:Drinking
00:38:04.000 : en:The Airport
00:43:58.000 : en:Visit Tony
00:49:31.000 : en:Letter to Papa
00:55:34.000 : en:A New Person
01:01:45.000 : en:Suicide Attempt
01:09:43.000 : en:Tony Adores London
01:12:08.000 : en:Mother and Son
01:18:15.000 : en:Backwards Writing
01:23:42.000 : en:Weight Lifted
01:29:12.000 : en:End Credits

Скриншоты


_________________
Показать сообщения:    

Текущее время: Сегодня 05:18

Часовой пояс: GMT



Вы не можете начинать темы
Вы не можете отвечать на сообщения
Вы не можете редактировать свои сообщения
Вы не можете удалять свои сообщения
Вы не можете голосовать в опросах
Вы не можете прикреплять файлы к сообщениям
Вы не можете скачивать файлы