Важное объявление!
У Нас Все раздачи мультитрекерные, при нуле пиров в релизах, можете смело вставать на закачку!
 
Автор Сообщение

димитри37

Стаж:
3 года 9 месяцев
Сообщений:
1237

Репутация: 127

[+] [-]
Вне форума [Профиль] [ЛС]

Дикари
Жанр: драма, мелодрама, комедия
Год выпуска: 2006
Продолжительность: 01:47:46
Режиссёр: Виктор Шамиров
В ролях:
Гоша Куценко
Марат Башаров
Константин Юшкевич
Эвклид Кюрдзидис
Тихон Жизневский
Анна Небогатова
Владислав Галкин
Алексей Горбунов
Ирина Новак
Александр Гришаев
Описание:
Море, август… Интересы людей просты: позагорать, поплавать, поиграть в волейбол, баскетбол, выпить, потанцевать вечером, найти партнера ночью… Многие вышли из студенческого возраста, могут позволить себе более комфортабельный отдых, но кончается июль, они кидают в багажник солидного автомобиля старую палатку и едут сюда.
Здесь не говорят о работе, здесь не важно, сколько у тебя денег… Множество человеческих историй, ценных, смешных и грустных. Внимание переходит от одного героя к другому, затем к третьему, возвращается к первому и цепляет на исходе эпизода четвертого, который был главный в предыдущем эпизоде. Рассказ строится скорее как музыка, чем как конструкция. И ритм, настроение повествования задает именно место действия.
Доп. информация:

Качество видео: DVDRip, исходник - DVD9
Формат видео: AVI
Видео: 720x384 (1.88:1), 25 fps, XviD build 65 ~2395 kbps avg, 0.35 bit/pixel
Аудио: 48 kHz, AC3 Dolby Digital, 3/2 (L,C,R,l,r) + LFE ch, ~448 kbps
Семпл

MediaInfo

Общее
Полное имя : D:\Torrent\Дикари\Дикари_2.15\Дикари_2.15.avi
Формат : AVI
Формат/Информация : Audio Video Interleave
Профиль формата : OpenDML
Размер файла : 2,15 Гбайт
Продолжительность : 1 ч. 47 м.
Общий поток : 2850 Кбит/сек
Программа кодирования : VirtualDubMod 1.5.10.3 | www.virtualdub-fr.org || (build 2550/release)
Библиотека кодирования : VirtualDubMod build 2550/release
Видео
Идентификатор : 0
Формат : MPEG-4 Visual
Профиль формата : Advanced Simple@L5
Параметр BVOP формата : 1
Параметр QPel формата : Нет
Параметр GMC формата : Без точки перехода
Параметр матрицы формата : Выборочная
Идентификатор кодека : XVID
Идентификатор кодека/Подсказка : XviD
Продолжительность : 1 ч. 47 м.
Битрейт : 2390 Кбит/сек
Ширина : 720 пикселей
Высота : 384 пикселя
Соотношение сторон : 1,85:1
Частота кадров : 25,000 кадров/сек
Цветовое пространство : YUV
Субдискретизация насыщенности : 4:2:0
Битовая глубина : 8 бит
Тип развёртки : Прогрессивная
Метод сжатия : С потерями
Бит/(Пиксели*Кадры) : 0.346
Размер потока : 1,80 Гбайт (84%)
Библиотека кодирования : XviD 65
Аудио
Идентификатор : 1
Формат : AC-3
Формат/Информация : Audio Coding 3
Расширение режима : CM (complete main)
Параметр Endianness формата : Big
Идентификатор кодека : 2000
Продолжительность : 1 ч. 47 м.
Вид битрейта : Постоянный
Битрейт : 448 Кбит/сек
Каналы : 6 каналов
Расположение каналов : Front: L C R, Side: L R, LFE
Частота : 48,0 КГц
Битовая глубина : 16 бит
Метод сжатия : С потерями
Размер потока : 345 Мбайт (16%)
Выравнивание : Разделение по промежуткам
Продолжительность промежутка : 40 мс. (1,00 видеокадр)
Время предзагрузки промежутка : 500 мс.

Скриншоты


Показать сообщения:    

Текущее время: Сегодня 07:51

Часовой пояс: GMT



Вы не можете начинать темы
Вы не можете отвечать на сообщения
Вы не можете редактировать свои сообщения
Вы не можете удалять свои сообщения
Вы не можете голосовать в опросах
Вы не можете прикреплять файлы к сообщениям
Вы не можете скачивать файлы