Важное объявление!
У Нас Все раздачи мультитрекерные, при нуле пиров в релизах, можете смело вставать на закачку!
 
Автор Сообщение

HUNTER

Стаж:
4 года 4 месяца
Сообщений:
56822

Репутация: 101

[+] [-]
Вне форума [Профиль] [ЛС]

Дизлайк- -Страна: Россия
Жанр: ужасы
Год выпуска: 2016
Производство: «STG Cinema»
Продолжительность: 01:27:12
Оригинальная аудиодорожка: русский
Cубтитры: нет-Режиссер: Павел Руминов-В ролях:
Мария Вэй, Анастасия Акатова, Диана Мелисон, Олег Гаас, Евгений Дакот, Александр Панин, Никита Московой, Андрей Шугов, Сергей Волков-Описание:
Они — кумиры миллионов, рок-звезды нового поколения! В свои 18-20 лет они зарабатывают за день, сколько их родители за несколько месяцев. Их видео собирают сотни тысяч «лайков», и не важно, разыгрывают ли они прохожих, рассказывают о кино и моде или снимают «вайны». Они — топовые видеоблогеры, за которыми охотятся рекламные агенты, мечтающие через новых звезд Интернета рассказать о своих товарах миру.
Восьмерых самых популярных видеоблогеров российского Интернета собрали в роскошном загородном коттедже, вдали от цивилизации и мобильных сетей на одну ночь, чтобы они продегустировали новый энергетический напиток. Но рекламная дегустация оказалась приманкой, а коттедж — ловушкой. Теперь они все — участники викторины, устроенной неизвестным маньяком, в которой звучит только один вопрос: «Кто заказал ваше убийство?». Каждый неправильный ответ будет стоить жизни одного из них.
Сможет ли кто-то спастись или всем придет дизлайк?-Возраст: 18+-Качество: WEB-DL 1080p
Формат: MKV
Видео кодек: AVC
Аудио кодек: AC3

Видео: AVC, 1920 х 804 (16:9), 25,000 кадр/сек, 4 521 Кбит/сек, 0.122 bit/pixel
Аудио: AC3, 48000 Hz, 384 Kbps, 6 каналов
-

MediaInfo

General
Unique ID : 221374849252775253307851090668682020370 (0xA68B3EBF9868CB7DB5747B13FA7D0612)
Complete name : D:\Раздачи\Дизлайк WEB-DL (1080p)\Дизлайк WEB-DL (1080p).mkv
Format : Matroska
Format version : Version 2
File size : 3.05 GiB
Duration : 1h 27mn
Overall bit rate : 5 005 Kbps
Movie name : Dislike (2016) - Release for HDCLUB
Encoded date : UTC 2016-10-13 23:07:12
Writing application : mkvmerge v3.4.0 ('Rapunzel') built on May 15 2010 09:38:20
Writing library : libebml v0.8.0 + libmatroska v0.9.0
Video
ID : 1
Format : AVC
Format/Info : Advanced Video Codec
Format profile : High@L4
Format settings, CABAC : Yes
Format settings, ReFrames : 5 frames
Codec ID : V_MPEG4/ISO/AVC
Duration : 1h 27mn
Bit rate : 4 521 Kbps
Width : 1 920 pixels
Height : 804 pixels
Display aspect ratio : 2.40:1
Frame rate mode : Constant
Frame rate : 24.000 fps
Color space : YUV
Chroma subsampling : 4:2:0
Bit depth : 8 bits
Scan type : Progressive
Bits/(Pixel*Frame) : 0.122
Stream size : 2.75 GiB (90%)
Title : Dislike (2016) - Release for HDCLUB
Language : Russian
Default : Yes
Forced : No
Color range : Limited
Color primaries : BT.709
Transfer characteristics : BT.709
Matrix coefficients : BT.709
Audio
ID : 2
Format : AC-3
Format/Info : Audio Coding 3
Mode extension : CM (complete main)
Format settings, Endianness : Big
Codec ID : A_AC3
Duration : 1h 27mn
Bit rate mode : Constant
Bit rate : 384 Kbps
Channel(s) : 6 channels
Channel positions : Front: L C R, Side: L R, LFE
Sampling rate : 48.0 KHz
Frame rate : 31.250 fps (1536 spf)
Compression mode : Lossy
Stream size : 240 MiB (8%)
Title : AC3 5.1 @ 384 kbps
Language : Russian
Default : Yes
Forced : No
Menu
00:00:00.000 : en:1
00:05:19.000 : en:2
00:10:29.958 : en:3
00:15:36.124 : en:4
00:20:44.915 : en:5
00:25:49.790 : en:6
00:31:25.665 : en:7
00:36:50.540 : en:8
00:42:19.540 : en:9
00:47:38.915 : en:10
00:53:36.748 : en:11
00:59:16.831 : en:12
01:05:50.789 : en:13
01:11:25.497 : en:14
01:16:32.038 : en:15
01:22:47.413 : en:16

Скриншоты


-Раздаю до первых 5-ти скачавших, на раздачи не возвращаюсь...-

_________________
Показать сообщения:    

Текущее время: Сегодня 02:52

Часовой пояс: GMT



Вы не можете начинать темы
Вы не можете отвечать на сообщения
Вы не можете редактировать свои сообщения
Вы не можете удалять свои сообщения
Вы не можете голосовать в опросах
Вы не можете прикреплять файлы к сообщениям
Вы не можете скачивать файлы