Важное объявление!
У Нас Все раздачи мультитрекерные, при нуле пиров в релизах, можете смело вставать на закачку!
 
Автор Сообщение

HUNTER

Стаж:
4 года 4 месяца
Сообщений:
56765

Репутация: 101

[+] [-]
Вне форума [Профиль] [ЛС]

Диггеры- -Страна: Россия
Жанр: ужасы
Год выпуска: 2016
Производство: «Горад»
Продолжительность: 01:18:54
Оригинальная аудиодорожка: русский
Cубтитры: нет-Режиссер: Тихон Корнев-В ролях:
Роман Евдокимов, Анна Васильева, Алёна Савастова, Владимир Кузнецов, Андрей Лёвин, Мария Щекатурова, Евгений Коряковский, Дин Фан, Кирилл Кобзарев, Валерия Шкирандо-Описание:
Ночное метро. Несколько минут до закрытия. Последний поезд на полном ходу пролетает мимо конечной станции, увозя в темноту туннеля ничего не понимающих пассажиров.
Официальные власти засекречивают информацию о бесследно исчезнувших людях. Через несколько дней, на поиски пропавших отправляются их друзья.
Им предстоит вспомнить все жуткие городские легенды, которыми окутано московское подземелье…. И узнать, что реальность может быть намного страшнее…-Возраст: 16+-Качество: WEB-DL 1080p
Формат: MKV
Видео кодек: AVC
Аудио кодек: AC3

Видео: AVC, 1920 х 804 (16:9), 25,000 кадр/сек, 4583 Кбит/сек, 0.124 bit/pixel
Аудио: AC3, 48000 Hz, 384 Kbps, 6 каналов
-

MediaInfo

General
Unique ID : 184866993050992025079327473378781192576 (0x8B141677BD33E4D2ADA80EBC65226180)
Complete name : D:\Раздачи\Диггеры WEB-DL (1080p)\Диггеры.mkv
Format : Matroska
Format version : Version 4 / Version 2
File size : 2.75 GiB
Duration : 1h 19mn
Overall bit rate : 4 969 Kbps
Encoded date : UTC 2016-09-18 10:50:38
Writing application : mkvmerge v8.3.0 ('Over the Horizon') 64bit
Writing library : libebml v1.3.1 + libmatroska v1.4.2
Video
ID : 1
Format : AVC
Format/Info : Advanced Video Codec
Format profile : High@L4
Format settings, CABAC : Yes
Format settings, ReFrames : 5 frames
Codec ID : V_MPEG4/ISO/AVC
Duration : 1h 19mn
Bit rate : 4 583 Kbps
Width : 1 920 pixels
Height : 804 pixels
Display aspect ratio : 2.40:1
Frame rate mode : Constant
Frame rate : 24.000 fps
Color space : YUV
Chroma subsampling : 4:2:0
Bit depth : 8 bits
Scan type : Progressive
Bits/(Pixel*Frame) : 0.124
Stream size : 2.54 GiB (92%)
Language : English
Default : Yes
Forced : No
Color range : Limited
Color primaries : BT.709
Transfer characteristics : BT.709
Matrix coefficients : BT.709
Audio
ID : 2
Format : AC-3
Format/Info : Audio Coding 3
Mode extension : CM (complete main)
Format settings, Endianness : Big
Codec ID : A_AC3
Duration : 1h 19mn
Bit rate mode : Constant
Bit rate : 384 Kbps
Channel(s) : 6 channels
Channel positions : Front: L C R, Side: L R, LFE
Sampling rate : 48.0 KHz
Frame rate : 31.250 fps (1536 spf)
Compression mode : Lossy
Stream size : 218 MiB (8%)
Language : Russian
Default : Yes
Forced : No
Menu
00:00:00.000 : en:Глава 1
00:06:53.291 : en:Глава 2
00:12:13.332 : en:Глава 3
00:19:48.915 : en:Глава 4
00:25:08.623 : en:Глава 5
00:30:40.789 : en:Глава 6
00:36:21.039 : en:Глава 7
00:41:57.289 : en:Глава 8
00:46:59.039 : en:Глава 9
00:53:00.414 : en:Глава 10
00:59:41.789 : en:Глава 11
01:04:44.747 : en:Глава 12
01:09:34.830 : en:Глава 13
01:14:49.871 : en:Глава 14

Скриншоты


-Раздаю до первых 5-ти скачавших, на раздачи не возвращаюсь...-

_________________
Показать сообщения:    

Текущее время: Сегодня 01:35

Часовой пояс: GMT



Вы не можете начинать темы
Вы не можете отвечать на сообщения
Вы не можете редактировать свои сообщения
Вы не можете удалять свои сообщения
Вы не можете голосовать в опросах
Вы не можете прикреплять файлы к сообщениям
Вы не можете скачивать файлы