Важное объявление!
У Нас Все раздачи мультитрекерные, при нуле пиров в релизах, можете смело вставать на закачку!
 
Автор Сообщение

HUNTER

Стаж:
4 года 4 месяца
Сообщений:
56839

Репутация: 101

[+] [-]
Вне форума [Профиль] [ЛС]

«Любовь - это война!»Название: Джунгли
Год выпуска: 2012 г.
Страна: Россия
Жанр: мелодрама, комедия, приключения
Продолжительность: 01:23:27
Перевод: не требуется
Субтитры: нет
Навигация по главам: есть
Режиссер: Александр Войтинский
В ролях: Сергей Светлаков, Вера Брежнева, Александр Макогон, Александр Половцев, Марина Дюжева, Михаил Ефремов, Ирина Медведева, Андрей Гаврилов...----Описание: У Сергея и Марины в семейной жизни наступил кризис. Во время одной из ссор, они решают поехать в экзотическое путешествие. Всю дорогу между супругами не утихают ссоры, которые в конце концов приводят к тому, что они оказываются на необитаемом острове, затерянном в океане. Вместо того чтобы вместе бороться за выживание, наши герои продолжают выяснять отношения, постепенно переходя к настоящим боевым действиям. В довершение несчастий оказывается, что остров населен племенем воинствующих туземцев…- -Раздача от: | Автор рипа: L | Исходник: Bluray Disc | Thx
Качество: BDRip-AVC
Контейнер: MKV
Видео: AVC / High@L4.1 / 1034 x 440 / 3 299 Kbps
Аудио: 48 kHz, AC3, 3/2 (L,C,R,l,r) + LFE ch, ~448.00 kbps avg - оригинал-

MI

Уникальный идентификатор : 215803677336128066004422379229183198889 (0xA25A46C40DEE5968B2A959880EC7C6A9)
Полное имя : F:RG25KADRDjungli.2012.Bluray.AVC.AC3.RG.25.Kadr[by.L].mkv
Формат : Matroska
Версия формата : Version 2
Размер файла : 2,18 Гбайт
Продолжительность : 1 ч. 23 м.
Общий поток : 3743 Кбит/сек
Название фильма : Джунгли [2012 г.] | Рип L [R.G. 25 Кадр] | Unionpeer
Дата кодирования : UTC 2013-01-27 13:13:00
Программа кодирования : mkvmerge v3.2.0 ('Beginnings') built on Feb 12 2010 16:46:17
Библиотека кодирования : libebml v0.7.9 + libmatroska v0.8.1
Видео
Идентификатор : 1
Формат : AVC
Формат/Информация : Advanced Video Codec
Профиль формата : High@L4.1
Параметр CABAC формата : Да
Параметр ReFrames формата : 10 кадров
Идентификатор кодека : V_MPEG4/ISO/AVC
Продолжительность : 1 ч. 23 м.
Битрейт : 3299 Кбит/сек
Ширина : 1034 пикселя
Высота : 440 пикселей
Соотношение сторон : 2,35:1
Режим частоты кадров : Постоянный
Частота кадров : 23,976 кадра/сек
Цветовое пространство : YUV
Субдискретизация насыщенности : 4:2:0
Битовая глубина : 8 бит
Тип развёртки : Прогрессивная
Бит/(Пиксели*Кадры) : 0.302
Размер потока : 1,88 Гбайт (86%)
Заголовок : Джунгли [2012 г.] | Рип L [R.G. 25 Кадр] | Unionpeer
Библиотека кодирования : x264 core 129 r2230 1cffe9f
Настройки программы : cabac=1 / ref=10 / deblock=1:-2:-1 / analyse=0x3:0x133 / me=umh / subme=11 / psy=1 / psy_rd=1.10:0.05 / mixed_ref=1 / me_range=32 / chroma_me=1 / trellis=2 / 8x8dct=1 / cqm=0 / deadzone=21,11 / fast_pskip=0 / chroma_qp_offset=-3 / threads=6 / lookahead_threads=1 / sliced_threads=0 / nr=0 / decimate=1 / interlaced=0 / bluray_compat=0 / constrained_intra=0 / bframes=8 / b_pyramid=2 / b_adapt=2 / b_bias=0 / direct=3 / weightb=1 / open_gop=0 / weightp=2 / keyint=240 / keyint_min=22 / scenecut=40 / intra_refresh=0 / rc=2pass / mbtree=0 / bitrate=3299 / ratetol=1.0 / qcomp=0.70 / qpmin=10 / qpmax=61 / qpstep=4 / cplxblur=20.0 / qblur=0.5 / ip_ratio=1.40 / pb_ratio=1.30 / aq=1:0.70
Язык : English
Default : Нет
Forced : Нет
Аудио
Идентификатор : 2
Формат : AC-3
Формат/Информация : Audio Coding 3
Расширение режима : CM (complete main)
Параметр Endianness формата : Big
Идентификатор кодека : A_AC3
Продолжительность : 1 ч. 23 м.
Вид битрейта : Постоянный
Битрейт : 448 Кбит/сек
Каналы : 6 каналов
Расположение каналов : Front: L C R, Side: L R, LFE
Частота : 48,0 КГц
Битовая глубина : 16 бит
Метод сжатия : С потерями
Размер потока : 267 Мбайт (12%)
Язык : Russian
Default : Да
Forced : Нет
Меню
00:00:00.000 : en:00:00:00.000
00:04:00.740 : en:00:04:00.740
00:07:56.267 : en:00:07:56.267
00:14:02.008 : en:00:14:02.008
00:17:18.287 : en:00:17:18.287
00:21:46.931 : en:00:21:46.931
00:27:42.411 : en:00:27:42.411
00:34:58.763 : en:00:34:58.763
00:40:15.580 : en:00:40:15.580
00:46:24.240 : en:00:46:24.240
00:51:48.022 : en:00:51:48.022
00:56:29.052 : en:00:56:29.052
01:00:57.988 : en:01:00:57.988
01:07:08.066 : en:01:07:08.066
01:13:54.096 : en:01:13:54.096
01:18:50.184 : en:01:18:50.184

_________________
Показать сообщения:    

Текущее время: Сегодня 23:23

Часовой пояс: GMT



Вы не можете начинать темы
Вы не можете отвечать на сообщения
Вы не можете редактировать свои сообщения
Вы не можете удалять свои сообщения
Вы не можете голосовать в опросах
Вы не можете прикреплять файлы к сообщениям
Вы не можете скачивать файлы