Важное объявление!
У Нас Все раздачи мультитрекерные, при нуле пиров в релизах, можете смело вставать на закачку!
 
Автор Сообщение

HUNTER

Стаж:
4 года 4 месяца
Сообщений:
56848

Репутация: 101

[+] [-]
Вне форума [Профиль] [ЛС]

Джорджия / Georgia
4:3 NTSC R1

Слоган: «The toughest act to follow was their dreams»
Страна: США, Франция
Студия: CiBy 2000, Miramax Films
Жанр: драма, музыка
Год выпуска: 1995
Продолжительность: 01:57:26
Перевод: Субтитры - Verrucka
Cубтитры: английские, русские, английские[CC]
Оригинальная аудиодорожка: английский
Режиссер: Улу Гросбард / Ulu Grosbard
В ролях: Дженнифер Джейсон Ли, Мэр Уиннингхэм, Тед Левайн, Макс Перлих, Джон До, Джон Си Райли, Джимми Уизерспун, Джейсон Картер, Том Бауэр, Смоуки Хормел ...
Описание: Сади Флад — сестра знаменитой рок-звезды Джорджии. Она зарабатывает себе на жизнь случайными выступлениями на сцене, а по ночам спит со случайными мужчинами.
Выпивка и наркотики становятся необходимостью, и Сади возвращается в дом Джорджии. Начинаются раздоры и примирения…
Доп. информация: Диск собран из Georgia_1995_DVD9 R1 найденного в сети. (Который на постере)
Меню: Статичное, неозвученное, на английском.Меню неотредактировано, переключение субтитров с пульта.
Фильм автоматически стартует с анг. звук. дорожкой и рус. субтитрами.
--Спасибо за рус. субтитры Verrucka
-- -
-

Награды


-
-Georgia_1995_DVD9 R1_Sample_.rar-
-

Точка перехода на второй слой


-
-Тип релиза: DVD9 (Custom)
Контейнер: DVD-Video
Видео: NTSC 4:3 (720x480) VBR, ~ 7418.57 kbps avg
Аудио 1: English, AC3, 2/0 (L,R) ch, 192 kbps, Delay 0 mSec
Аудио 2: Francais, AC3, 2/0 (L,R) ch, 192 kbps, Delay 0 mSec
Формат субтитров: prerendered (DVD/IDX+SUB), СС (Closed Captions)

MediaInfo

General
Complete name : Georgia_1995_DVD9 R1\VIDEO_TS\VTS_01_2.VOB
Format : MPEG-PS
File size : 1 024 MiB
Duration : 18mn 59s
Overall bit rate mode : Variable
Overall bit rate : 7 536 Kbps
Video
ID : 224 (0xE0)
Format : MPEG Video
Format version : Version 2
Format profile : Main@Main
Format settings, BVOP : Yes
Format settings, Matrix : Custom
Format settings, GOP : M=3, N=12
Duration : 18mn 59s
Bit rate mode : Variable
Bit rate : 7 002 Kbps
Maximum bit rate : 9 802 Kbps
Width : 720 pixels
Height : 480 pixels
Display aspect ratio : 4:3
Frame rate : 23.976 fps
Standard : NTSC
Color space : YUV
Chroma subsampling : 4:2:0
Bit depth : 8 bits
Scan type : Progressive
Scan order : 2:3 Pulldown
Compression mode : Lossy
Bits/(Pixel*Frame) : 0.845
Stream size : 951 MiB (93%)
Audio #1
ID : 189 (0xBD)-128 (0x80)
Format : AC-3
Format/Info : Audio Coding 3
Format profile : Dolby Digital
Mode extension : CM (complete main)
Format settings, Endianness : Big
Muxing mode : DVD-Video
Duration : 18mn 59s
Bit rate mode : Constant
Bit rate : 192 Kbps
Channel(s) : 2 channels
Channel positions : Front: L R
Sampling rate : 48.0 KHz
Bit depth : 16 bits
Compression mode : Lossy
Delay relative to video : -424ms
Stream size : 26.1 MiB (3%)
Audio #2
ID : 189 (0xBD)-129 (0x81)
Format : AC-3
Format/Info : Audio Coding 3
Format profile : Dolby Digital
Mode extension : CM (complete main)
Format settings, Endianness : Big
Muxing mode : DVD-Video
Duration : 18mn 59s
Bit rate mode : Constant
Bit rate : 192 Kbps
Channel(s) : 2 channels
Channel positions : Front: L R
Sampling rate : 48.0 KHz
Bit depth : 16 bits
Compression mode : Lossy
Delay relative to video : -424ms
Stream size : 26.1 MiB (3%)
Text #1
ID : 189 (0xBD)-32 (0x20)
Format : RLE
Format/Info : Run-length encoding
Muxing mode : DVD-Video
Duration : 18mn 54s
Delay relative to video : 1s 568ms
Text #2
ID : 189 (0xBD)-33 (0x21)
Format : RLE
Format/Info : Run-length encoding
Muxing mode : DVD-Video
Delay relative to video : 2s 102ms
Text #3
ID : 224 (0xE0)-CC3
Format : EIA-608
Muxing mode, more info : Muxed in Video #1
Bit rate mode : Constant
Stream size : 0.00 Byte (0%)
Menu

DVD Info

Title: Georgia_1995_DVD9 R1
Size: 6.10 Gb ( 6 393 300,00 KBytes ) - DVD-9
Enabled regions: 1, 2, 3, 4, 5, 6, 7, 8
VTS_01 :
Play Length: 01:57:26
Video: NTSC 4:3 (720x480) VBR
Audio:
English, AC3, 2/0 (L,R) ch, 192 kbps, Delay 0 mSec
Francais, AC3, 2/0 (L,R) ch, 192 kbps, Delay 0 mSec
Subtitles:
English
Russian
* Menus Information *
VIDEO_TS Menu
Video:
NTSC 4:3 (720x480) VBR
English Language Unit :
Title Menu
VTS_01 Menu
Video:
NTSC 4:3 (720x480) VBR
English Language Unit :
Root Menu
Subpicture Menu
Audio Menu
Angle menu
Chapter (PTT) Menu

П. О.

PgcDemux 1.2.0.5 - разделение компонентов диска на файлы;
MaestroSBT-Unicode-2.6.2.1 - Создание субтитров
DVDSubEdit -- Version 1.52 - Правка (цветовых схем) субтитров
MuxMan DVD authoring Professional 1.4.4 - мультиплексирование и авторинг DVD;
DVDRemake Pro 3.6.4 - реавторинг DVD;
DVD Shrink 3.2 - Сэмпл
VLC - Скриншоты-
-
- -
-
-MuxMan version 1.4.4
new project database size 400, base 26a0018.
new pointer management list size 50.
new clipboard database size 20, base 9ce960.
19:38:44 Begin m2v survey of C:\Temp\Georgia\VideoFile.m2v.
Accepted audio C:\Temp\Georgia\AudioFile_80.ac3
Accepted audio C:\Temp\Georgia\AudioFile_81.ac3
expanded database to 602 entries.
expanded database to 804 entries.
expanded database to 1006 entries.
expanded database to 1208 entries.
expanded database to 1410 entries.
expanded database to 1612 entries.
expanded database to 1814 entries.
expanded database to 2016 entries.
expanded database to 2218 entries.
expanded database to 2420 entries.
expanded database to 2622 entries.
expanded database to 2824 entries.
expanded database to 3026 entries.
19:42:03 End survey of C:\Temp\Georgia\VideoFile.m2v.
19:42:20 Begin multiplex VTS01.
Title Segment List
Segment_1 non-seamless
Encoded stream 20 is script stream 1.
Encoded stream 21 is script stream 2.
Buffering audio track 1 file C:\Temp\Georgia\AudioFile_80.ac3.
Buffering audio track 2 file C:\Temp\Georgia\AudioFile_81.ac3.
Maximum audio duration 422766 fields.
Multiplex delay set to 25257.
Positioned C:\Temp\Georgia\VideoFile.m2v to 00:00:00:00
Starting scene Segment_1_scn1 at 00:00:00:00
new graphics buffer size 414720.
Starting scene Segment_1_scn2 at 00:05:37:23
Starting scene Segment_1_scn3 at 00:05:57:08
Starting scene Segment_1_scn4 at 00:15:09:06, requested for 00:15:08:22
Starting scene Segment_1_scn5 at 00:20:02:23
Starting scene Segment_1_scn6 at 00:24:43:03
Starting scene Segment_1_scn7 at 00:32:24:09
Starting scene Segment_1_scn8 at 00:35:54:04
Starting scene Segment_1_scn9 at 00:46:26:08
Starting scene Segment_1_scn10 at 00:49:59:09
Starting scene Segment_1_scn11 at 00:52:38:03
Starting scene Segment_1_scn12 at 00:58:10:03
Starting scene Segment_1_scn13 at 01:06:19:07
Starting scene Segment_1_scn14 at 01:10:13:23
Starting scene Segment_1_scn15 at 01:24:21:17
Starting scene Segment_1_scn16 at 01:25:36:07
Starting scene Segment_1_scn17 at 01:30:52:07
Starting scene Segment_1_scn18 at 01:35:46:22
Starting scene Segment_1_scn19 at 01:43:52:02
Starting scene Segment_1_scn20 at 01:51:57:23
Starting scene Segment_1_scn21 at 01:53:51:27
SeqEnd at 16983445B.
Starting scene Segment_1_scn22 at 01:57:26:03
SeqEnd at 1698359BC.
Bytes remaining in buffer = 0.
Bitrate - avg: 7408578, min: 286433 (lba 3189492), max: 11260931 (lba 390009).
Shortest GOP has 2 fields, longest GOP has 36 fields.
Fields: 422790, Still fields: 22, VOBU: 14081, Sectors: 3189499.
19:54:44 Begin multiplex VMG.
19:54:44 End multiplex.
Summary of Virtual Memory Management
VM base 026a0000, reserved 60000000, commited 00050000, free 3298, disposable 0.
handle 1, size 4cd68 (314704 data), owner 80000001, time 0, locks 1 0 0, lcnt 1.
Locked by DBinit.
handle 0, size 3298 (12928 data), owner 0, time 0, locks 0 0 0, lcnt 0.

Скриншоты меню




-
-
-

Доп.





_________________
Показать сообщения:    

Текущее время: Сегодня 03:10

Часовой пояс: GMT



Вы не можете начинать темы
Вы не можете отвечать на сообщения
Вы не можете редактировать свои сообщения
Вы не можете удалять свои сообщения
Вы не можете голосовать в опросах
Вы не можете прикреплять файлы к сообщениям
Вы не можете скачивать файлы
Наши партнеры: интернет магазин Ивановского трикотажа textilla.ru