Важное объявление!
У Нас Все раздачи мультитрекерные, при нуле пиров в релизах, можете смело вставать на закачку!
 
Автор Сообщение

HUNTER

Стаж:
4 года 4 месяца
Сообщений:
56755

Репутация: 101

[+] [-]
Вне форума [Профиль] [ЛС]

-Джон Уик / John Wick-
Год: 2014
Страна: Китай, Канада, США
Жанр: Боевик, триллер
Продолжительность: 01:41:13
Перевод: Дублированный (Чистый звук)
Субтитры: Нет -В ролях: Киану Ривз, Микаэл Нюквист, Элфи Оуэн-Аллен, Уиллем Дефо, Дин Уинтерс, Эдрианн Палики, Омер Барнеа, Тоби Мур, Дэниэл Бернхард, Бриджет Мойнэхэн
Режиссер: Чад Стахелски, Дэвид Лейтч-Описание:-Джон Уик — бывший наемный убийца — ведет размеренную жизнь, когда преступник крадет его любимый Mustang 1969 года и попутно убивает собаку Дейзи, единственное живое напоминание об умершей жене. Жажда мести пробуждает в нем, казалось, утерянную хватку…-Качество: BDRip 1080p (Profile-LQ)
Формат: MKV
Видео кодек: MPEG-4 AVC/H.264
Аудио кодек: AC3
Видео: 1920х800, ~8 440 Кбит/с, 23.976 fps
Аудио 1: Русский AC3, 2 ch, 128 Кбит/с
Аудио 2: Английский AC3, 6 ch, 640 Кбит/с-

Рейтинг

Media Info

General
Complete name : E:\NMN Club\John Wick.2014.BDRip.1080p.mkv
Format : Matroska
File size : 6.64 GiB
Duration : 1h 41mn
Overall bit rate : 9 395 Kbps
Encoded date : UTC 2015-01-21 09:18:50
Writing application : mkvmerge v6.1.0 ('Old Devil') built on Mar 4 2013 09:10:42
Writing library : libebml v1.3.0 + libmatroska v1.4.0
Video
ID : 1
Format : AVC
Format/Info : Advanced Video Codec
Format profile : High@L4.1
Format settings, CABAC : Yes
Format settings, ReFrames : 5 frames
Muxing mode : Container profile=Unknown@4.1
Codec ID : V_MPEG4/ISO/AVC
Duration : 1h 41mn
Bit rate : 8 440 Kbps
Nominal bit rate : 8 631 Kbps
Width : 1 920 pixels
Height : 800 pixels
Display aspect ratio : 2.40:1
Frame rate : 23.976 fps
Resolution : 8 bits
Colorimetry : 4:2:0
Scan type : Progressive
Bits/(Pixel*Frame) : 0.229
Stream size : 5.96 GiB (90%)
Writing library : x264 core 144 r2525 40bb568
Encoding settings : cabac=1 / ref=5 / deblock=1:0:0 / analyse=0x3:0x133 / me=umh / subme=7 / psy=1 / psy_rd=1.00:0.00 / mixed_ref=1 / me_range=16 / chroma_me=1 / trellis=1 / 8x8dct=1 / cqm=0 / deadzone=21,11 / fast_pskip=0 / chroma_qp_offset=-2 / threads=60 / lookahead_threads=6 / sliced_threads=0 / nr=0 / decimate=1 / interlaced=0 / bluray_compat=0 / constrained_intra=0 / bframes=3 / b_pyramid=2 / b_adapt=1 / b_bias=0 / direct=1 / weightb=1 / open_gop=0 / weightp=2 / keyint=250 / keyint_min=23 / scenecut=40 / intra_refresh=0 / rc_lookahead=40 / rc=2pass / mbtree=1 / bitrate=8631 / ratetol=1.0 / qcomp=0.60 / qpmin=0 / qpmax=69 / qpstep=4 / cplxblur=20.0 / qblur=0.5 / ip_ratio=1.40 / aq=1:1.00
Audio #1
ID : 2
Format : AC-3
Format/Info : Audio Coding 3
Codec ID : A_AC3
Duration : 1h 41mn
Bit rate mode : Constant
Bit rate : 128 Kbps
Channel(s) : 2 channels
Channel positions : L R
Sampling rate : 48.0 KHz
Stream size : 92.7 MiB (1%)
Title : Chistyj.zvuk - dubliazh
Language : Russian
Audio #2
ID : 3
Format : AC-3
Format/Info : Audio Coding 3
Codec ID : A_AC3
Duration : 1h 41mn
Bit rate mode : Constant
Bit rate : 640 Kbps
Channel(s) : 6 channels
Channel positions : Front: L C R, Surround: L R, LFE
Sampling rate : 48.0 KHz
Stream size : 463 MiB (7%)
Menu
00:00:00.000 : en:00:00:00.000
00:04:57.506 : en:00:04:57.506
00:12:21.866 : en:00:12:21.866
00:17:07.735 : en:00:17:07.735
00:26:25.167 : en:00:26:25.167
00:32:40.250 : en:00:32:40.250
00:36:24.599 : en:00:36:24.599
00:42:16.033 : en:00:42:16.033
00:45:33.272 : en:00:45:33.272
00:55:02.507 : en:00:55:02.507
00:59:27.564 : en:00:59:27.564
01:06:13.428 : en:01:06:13.428
01:14:15.910 : en:01:14:15.910
01:19:13.040 : en:01:19:13.040
01:27:29.786 : en:01:27:29.786
01:32:24.789 : en:01:32:24.789

Скриншоты

-Источник:

_________________
Показать сообщения:    

Текущее время: Сегодня 10:39

Часовой пояс: GMT



Вы не можете начинать темы
Вы не можете отвечать на сообщения
Вы не можете редактировать свои сообщения
Вы не можете удалять свои сообщения
Вы не можете голосовать в опросах
Вы не можете прикреплять файлы к сообщениям
Вы не можете скачивать файлы