Важное объявление!
У Нас Все раздачи мультитрекерные, при нуле пиров в релизах, можете смело вставать на закачку!
 
Автор Сообщение

HUNTER

Стаж:
4 года 4 месяца
Сообщений:
56722

Репутация: 101

[+] [-]
Вне форума [Профиль] [ЛС]

Джолин / Jolene
Страна: США
Студия: Next Turn Productions
Жанр: драма
Год выпуска: 2008
Продолжительность: 02:00:54
Перевод: Любительский (двухголосый закадровый) RG Victory Films
Cубтитры: русские, английские
Оригинальная аудиодорожка: английский
Режиссер: Дэн Айрлэнд / Dan Ireland
В ролях: Джессика Честейн, Майкл Вартан, Дермот Малруни, Чазз Пальминтери, Руперт Френд, Дениз Ричардс, Тереза Расселл, Фрэнсис Фишер и др.
Описание: Сирота-подросток проводит десять лет, путешествуя по стране, познавая жизнь, любовь и разлуку. Основано на новелле Эдгара Лоуренса Доктороу, "Джолин: Жизнь"
II Сэмпл II IMDB II
Тип релиза: BDRip 1080p
Контейнер: MKV
Видео: AVC / 1920x816 / 16:9 / 23.976fps / Bit rate / 15500Kbps / High@L4.1
Аудио 1: AC3 / 48.0 KHz / 2ch. / 192kbps / Rus / DVO / RG Victory Films
Аудио 2: DTS / 48.0 KHz / 6ch. / 1509kbps / 24bit / Eng
Формат субтитров: softsub (SRT)

MediaInfo

Общее
Уникальный идентификатор : 227031463587804081193705268532037322787 (0xAACCAB5E128A2D9496875910425C8823)
Полное имя : D:\_Torrent\temp\Jolene.2008.BDRip.1080p_by_vedigo.mkv
Формат : Matroska
Версия формата : Version 4 / Version 2
Размер файла : 14,5 Гбайт
Продолжительность : 2 ч. 1 м.
Общий поток : 17,2 Мбит/сек
Название фильма : Jolene.2008.BDRip.1080p_by_vedigo
Дата кодирования : UTC 2016-07-29 10:45:04
Программа кодирования : mkvmerge v9.3.1 ('Mask Machine') 64bit
Библиотека кодирования : libebml v1.3.4 + libmatroska v1.4.5
Видео
Идентификатор : 1
Формат : AVC
Формат/Информация : Advanced Video Codec
Профиль формата : High@L4.1
Параметр CABAC формата : Да
Параметр ReFrames формата : 5 кадров
Идентификатор кодека : V_MPEG4/ISO/AVC
Продолжительность : 2 ч. 0 м.
Битрейт : 15,5 Мбит/сек
Ширина : 1920 пикселей
Высота : 816 пикселей
Соотношение сторон : 2,35:1
Режим частоты кадров : Постоянный
Частота кадров : 23,976 (24000/1001) кадра/сек
Цветовое пространство : YUV
Субдискретизация насыщенности : 4:2:0
Битовая глубина : 8 бит
Тип развёртки : Прогрессивная
Бит/(Пиксели*Кадры) : 0.413
Размер потока : 13,1 Гбайт (90%)
Заголовок : Jolene.2008.BDRip.1080p_by_vedigo
Библиотека кодирования : x264 core 148 r2705 3f5ed56
Настройки программы : cabac=1 / ref=5 / deblock=1:-3:-3 / analyse=0x3:0x133 / me=umh / subme=11 / psy=1 / psy_rd=1.00:0.10 / mixed_ref=1 / me_range=64 / chroma_me=1 / trellis=2 / 8x8dct=1 / cqm=0 / deadzone=21,11 / fast_pskip=0 / chroma_qp_offset=-3 / threads=12 / lookahead_threads=3 / sliced_threads=0 / nr=0 / decimate=1 / interlaced=0 / bluray_compat=0 / constrained_intra=0 / bframes=12 / b_pyramid=2 / b_adapt=2 / b_bias=0 / direct=3 / weightb=1 / open_gop=0 / weightp=2 / keyint=250 / keyint_min=23 / scenecut=40 / intra_refresh=0 / rc_lookahead=40 / rc=2pass / mbtree=0 / bitrate=15500 / ratetol=1.0 / qcomp=0.60 / qpmin=0 / qpmax=69 / qpstep=4 / cplxblur=20.0 / qblur=0.5 / vbv_maxrate=50000 / vbv_bufsize=62500 / nal_hrd=none / filler=0 / ip_ratio=1.40 / pb_ratio=1.30 / aq=1:0.90
Default : Да
Forced : Нет
Аудио #1
Идентификатор : 2
Формат : AC-3
Формат/Информация : Audio Coding 3
Расширение режима : CM (complete main)
Параметр Endianness формата : Big
Идентификатор кодека : A_AC3
Продолжительность : 2 ч. 1 м.
Вид битрейта : Постоянный
Битрейт : 192 Кбит/сек
Каналы : 2 канала
Расположение каналов : Front: L R
Частота : 48,0 КГц
Частота кадров : 31,250 кадров/сек (1536 spf)
Метод сжатия : С потерями
Размер потока : 166 Мбайт (1%)
Заголовок : DVO @ RG Victory Films
Язык : Russian
Default : Да
Forced : Нет
Аудио #2
Идентификатор : 3
Формат : DTS
Формат/Информация : Digital Theater Systems
Режим : 16
Параметр Endianness формата : Big
Идентификатор кодека : A_DTS
Продолжительность : 2 ч. 1 м.
Вид битрейта : Постоянный
Битрейт : 1509 Кбит/сек
Каналы : 6 каналов
Расположение каналов : Front: L C R, Side: L R, LFE
Частота : 48,0 КГц
Частота кадров : 93,750 кадра/сек (512 spf)
Битовая глубина : 24 бит
Метод сжатия : С потерями
Размер потока : 1,28 Гбайт (9%)
Заголовок : Original
Язык : English
Default : Нет
Forced : Нет
Текст #1
Идентификатор : 4
Формат : UTF-8
Идентификатор кодека : S_TEXT/UTF8
Идентификатор кодека/Информация : UTF-8 Plain Text
Продолжительность : 1 ч. 51 м.
Битрейт : 90 бит/сек
Count of elements : 1375
Размер потока : 73,8 Кбайт (0%)
Заголовок : Subtitle rus @ Langolyer
Язык : Russian
Default : Нет
Forced : Нет
Текст #2
Идентификатор : 5
Формат : UTF-8
Идентификатор кодека : S_TEXT/UTF8
Идентификатор кодека/Информация : UTF-8 Plain Text
Продолжительность : 1 ч. 56 м.
Битрейт : 58 бит/сек
Count of elements : 1536
Размер потока : 49,6 Кбайт (0%)
Заголовок : Subtitle eng
Язык : English
Default : Нет
Forced : Нет
Меню
00:00:00.000 : en:00:00:00.000
00:00:13.013 : en:00:00:13.013
00:03:08.188 : en:00:03:08.188
00:11:08.668 : en:00:11:08.668
00:18:37.116 : en:00:18:37.116
00:24:48.487 : en:00:24:48.487
00:31:52.911 : en:00:31:52.911
00:38:54.332 : en:00:38:54.332
00:47:08.826 : en:00:47:08.826
00:52:28.145 : en:00:52:28.145
01:00:46.643 : en:01:00:46.643
01:13:53.429 : en:01:13:53.429
01:19:03.739 : en:01:19:03.739
01:33:09.584 : en:01:33:09.584
01:40:54.048 : en:01:40:54.048
01:50:19.613 : en:01:50:19.613
01:53:46.820 : en:01:53:46.820

Скриншоты


Сравнение с исходником





x264 info

x264 [info]: using SAR=1/1
x264 [info]: using cpu capabilities: MMX2 SSE2Fast SSSE3 SSE4.2 AVX
x264 [info]: profile High, level 4.1
x264 [info]: frame I:1051 Avg QP:15.50 size:230063
x264 [info]: frame P:33643 Avg QP:17.22 size:129260
x264 [info]: frame B:139233 Avg QP:19.17 size: 67923
x264 [info]: consecutive B-frames: 1.6% 2.2% 5.2% 13.5% 15.6% 32.6% 9.1% 12.1% 3.2% 1.7% 0.9% 1.5% 0.9%
x264 [info]: mb I I16..4: 13.7% 69.8% 16.5%
x264 [info]: mb P I16..4: 0.6% 42.5% 1.6% P16..4: 17.0% 21.9% 8.4% 1.5% 0.1% skip: 6.4%
x264 [info]: mb B I16..4: 0.1% 7.6% 0.1% B16..8: 35.9% 24.4% 5.5% direct:12.2% skip:14.2% L0:43.6% L1:35.4% BI:21.0%
x264 [info]: 8x8 transform intra:95.1% inter:44.9%
x264 [info]: direct mvs spatial:98.9% temporal:1.1%
x264 [info]: coded y,uvDC,uvAC intra: 99.0% 96.0% 82.4% inter: 62.4% 49.3% 9.0%
x264 [info]: i16 v,h,dc,p: 26% 6% 25% 43%
x264 [info]: i8 v,h,dc,ddl,ddr,vr,hd,vl,hu: 8% 7% 15% 10% 13% 10% 12% 11% 14%
x264 [info]: i4 v,h,dc,ddl,ddr,vr,hd,vl,hu: 10% 8% 6% 9% 14% 13% 14% 11% 14%
x264 [info]: i8c dc,h,v,p: 51% 17% 17% 15%
x264 [info]: Weighted P-Frames: Y:3.7% UV:1.6%
x264 [info]: ref P L0: 43.3% 13.1% 25.1% 8.9% 9.3% 0.2% 0.0%
x264 [info]: ref B L0: 75.9% 16.6% 6.1% 1.3%
x264 [info]: ref B L1: 93.8% 6.2%
x264 [info]: kb/s:15491.75

Исходник

[url=viewtopic.php?t=5260879]http://rutracker.org/forum/viewtopic.php?t=5260879[/url]

_________________
Показать сообщения:    

Текущее время: Сегодня 14:20

Часовой пояс: GMT



Вы не можете начинать темы
Вы не можете отвечать на сообщения
Вы не можете редактировать свои сообщения
Вы не можете удалять свои сообщения
Вы не можете голосовать в опросах
Вы не можете прикреплять файлы к сообщениям
Вы не можете скачивать файлы