Важное объявление!
У Нас Все раздачи мультитрекерные, при нуле пиров в релизах, можете смело вставать на закачку!
 
Автор Сообщение

HUNTER

Стаж:
4 года 4 месяца
Сообщений:
56733

Репутация: 101

[+] [-]
Вне форума [Профиль] [ЛС]

Джок / Jock-«Самое большое приключение лучшего друга человека»-
Год выпуска: 2011
Страна: США, ЮАР / Jock Animation, Motion Sound & Picture
Жанр: мультфильм, комедия, приключения, семейный
Продолжительность: 01:19:43
Перевод: Дублированное [лицензия]-Режиссер: Дункан МакНили
В ролях: Брайан Адамс, Уильям Болдуин, Энтони Бишоп, Луиса Сердан, Филина Цердан, Тед Дэнсон, Роуз Эмануэл, Ава Флюти, Катерина Флюти, Ким Харт-О фильме:
История приключений очаровательного и бесстрашного пса по кличке Джок — самого младшего, и, как оказалось, самого слабого из своих братьев и сестер. Его ждут удивительные приключения и невероятные испытания. Он станет сильным и отважным, храбрым и преданным — лучшим другом для своего юного хозяина.-Качество: BDRip 720p
Формат: MKV
Видеокодек: MPEG-4 AVC/H.264
Аудиокодек: DTS
Видео: MPEG-4 AVC, 1280x720, 4 624 Кбит/сек, 23.976 кадра/сек, 0.209 Бит/(Пиксели*Кадры)
Аудио: DTS 5.1, 1510 kbps, 48 kHz, 6 ch-Семпл: http://multi-up.com/718817
-

Доп.Информация

-Релиз группы:

MI

General
Unique ID : 228252563405875375043620381981323397035 (0xABB7D83C9916C813895019F9530187AB)
Complete name : Dzhok.2011.D.BDRip.720p.IRONCLUB.mkv
Format : Matroska
Format version : Version 2
File size : 3.48 GiB
Duration : 1h 19mn
Overall bit rate : 6 258 Kbps
Movie name : IRONCLUB
Encoded date : UTC 2012-06-14 16:53:39
Writing application : mkvmerge v4.9.1 ('Ich will') built on Jul 11 2011 23:53:15
Writing library : libebml v1.2.1 + libmatroska v1.1.1
Video
ID : 1
Format : AVC
Format/Info : Advanced Video Codec
Format profile : [url=mailto:High@L4.1]High@L4.1[/url]
Format settings, CABAC : Yes
Format settings, ReFrames : 9 frames
Codec ID : V_MPEG4/ISO/AVC
Duration : 1h 19mn
Bit rate : 4 624 Kbps
Width : 1 280 pixels
Height : 720 pixels
Display aspect ratio : 16:9
Frame rate : 23.976 fps
Color space : YUV
Chroma subsampling : 4:2:0
Bit depth : 8 bits
Scan type : Progressive
Bits/(Pixel*Frame) : 0.209
Stream size : 2.57 GiB (74%)
Title : Jock 2011 720p BluRay DTS x264-IRONCLUB
Writing library : x264 core 120 r2164 da19765
Encoding settings : cabac=1 / ref=9 / deblock=1:-3:-3 / analyse=0x3:0x113 / me=umh / subme=10 / psy=1 / psy_rd=1.00:0.00 / mixed_ref=1 / me_range=24 / chroma_me=1 / trellis=2 / 8x8dct=1 / cqm=0 / deadzone=21,11 / fast_pskip=0 / chroma_qp_offset=-2 / threads=12 / sliced_threads=0 / nr=0 / decimate=1 / interlaced=0 / bluray_compat=0 / constrained_intra=0 / bframes=8 / b_pyramid=2 / b_adapt=2 / b_bias=0 / direct=3 / weightb=1 / open_gop=0 / weightp=2 / keyint=250 / keyint_min=23 / scenecut=40 / intra_refresh=0 / rc_lookahead=40 / rc=crf / mbtree=1 / crf=15.5 / qcomp=0.60 / qpmin=10 / qpmax=69 / qpstep=4 / vbv_maxrate=50000 / vbv_bufsize=62500 / crf_max=0.0 / nal_hrd=none / ip_ratio=1.40 / aq=1:1.00
Language : English
Default : Yes
Forced : Yes
Matrix coefficients : BT.709-5, BT.1361, IEC 61966-2-4 709, SMPTE RP177
Audio
ID : 2
Format : DTS
Format/Info : Digital Theater Systems
Codec ID : A_DTS
Duration : 1h 19mn
Bit rate mode : Constant
Bit rate : 1 510 Kbps
Channel(s) : 6 channels
Channel positions : Front: L C R, Side: L R, LFE
Sampling rate : 48.0 KHz
Bit depth : 24 bits
Compression mode : Lossy
Stream size : 861 MiB (24%)
Title : DTS 5.1 @ 1536 kbps
Language : Russian
Default : No
Forced : No

Скриншоты:





_________________
Показать сообщения:    

Текущее время: Сегодня 00:23

Часовой пояс: GMT



Вы не можете начинать темы
Вы не можете отвечать на сообщения
Вы не можете редактировать свои сообщения
Вы не можете удалять свои сообщения
Вы не можете голосовать в опросах
Вы не можете прикреплять файлы к сообщениям
Вы не можете скачивать файлы