Важное объявление!
У Нас Все раздачи мультитрекерные, при нуле пиров в релизах, можете смело вставать на закачку!
 
Автор Сообщение

HUNTER

Стаж:
4 года 4 месяца
Сообщений:
56842

Репутация: 101

[+] [-]
Вне форума [Профиль] [ЛС]

Джимми Нейтрон: Вундеркинд / Мальчик-гений / Jimmy Neutron: Boy Genius-
Страна: США
Жанр: семейный, мультфильм
Продолжительность: 01:22:34
Год выпуска: 2001
Перевод 1: Профессиональный (дублированный) - СТС
Перевод 2: Профессиональный (двухголосый закадровый) - Премьер Мультимедиа
Перевод 3: Профессиональный (двухголосый закадровый) - DVD R7
Перевод 4: Одноголосый закадровый - Пётр Иващенко / Гланц
Перевод 5: Авторский (одноголосый закадровый) - Евгений Гранкин
Русские субтитры: нет-Режиссёр: Джон А. Дэвис / John A. Davis
Роли озвучивали: Патрик Стюарт, Миган Кавана, Марк ДеКарло, Деби Дерриберри, Джефф Гарсиа, Боб Гоен, Мэри Харт, Кэролин Лоуренс, Андреа Мартин, Кэнди Мило, Роб Полсен, Билли Уэст, Мартин Шорт, Джим Каммингс, Фрэнк Уэлкер, Ди Брэдли Бейкер, Карлос Алазраки- | Релиз: -Описание: Пришельцы решили совершить массированный налет на мирный и благополучный Ретровилль! В то время, как Джимми развлекался в луна-парке со своими друзьями, инопланетяне обрушились с небес, похитив при этом родителей всех детишек!
Жизнь без строгих пап и мам, поначалу казавшаяся раем, стала совершенно невыносимой и тоскливой. Отважный Джимми Нейтрон решает спасти любимых родителей из инопланетного плена! Вместе со своей верной собакой-киборгом мальчик-гений создает эскадру космических кораблей, на которой он, вместе с осиротевшими ребятишками Ретровилля, отправится в межгалактический поход освобождать родителей!-Доп. информация:
- За оцифровку с VHS Hi-Fi звуковой дорожки с переводом "Премьер Мультимедиа" спасибо bora86bora.
- Запись дубляжа с канала "СТС", работа со звуком и видео - xfiles.-Семпл: http://sendfile.su/1069580-Качество: DVDRip-AVC
Формат: MKV
Видео: 708x478 (16:9) @ 840x478, 23.976 fps, AVC, ~1992 kbps, 0.236 bits/pixel
Аудио 1: Русский, 48.0 KHz, AC3, 2 ch, 224 kbps - Дубляж | СТС
Аудио 2: Русский, 48.0 KHz, AC3, 2 ch, 224 kbps - Закадровый | Премьер Мультимедиа | VHS Hi-Fi
Аудио 3: Русский, 48.0 KHz, AC3, 6 ch, 384 kbps - Закадровый | DVD R7
Аудио 4: Русский, 48.0 KHz, AC3, 6 ch, 448 kbps - Закадровый | Пётр Гланц
Аудио 5: Русский, 48.0 KHz, AC3, 6 ch, 448 kbps - Закадровый | Евгений Гранкин
Аудио 6: Українська, 48.0 KHz, AC3, 1 ch, 128 kbps - Закадровий | Інтер
Аудио 7: English, 48.0 KHz, AC3, 6 ch, 448 kbps - Original
Субтитры: English

Подробные технические данные

x264 log
x264 [info]: 708x478p 32:27 @ 24000/1001 fps (cfr)x264 [info]: using SAR=32/27x264 [info]: using cpu capabilities: MMX2 SSE2Fast SSSE3 SSE4.2 AVXx264 [info]: profile High, level 4.0x264 [info]: cabac=1 ref=16 deblock=1:-1:-1 analyse=0x3:0x133 me=umh subme=11 psy=1 fade_compensate=0.00 psy_rd=0.60:0.00 mixed_ref=1 me_range=48 chroma_me=1 trellis=2 8x8dct=1 cqm=0 deadzone=21,11 fast_pskip=0 chroma_qp_offset=-2 threads=12 lookahead_threads=2 sliced_threads=0 nr=0 decimate=1 interlaced=0 bluray_compat=0 constrained_intra=0 fgo=0 bframes=8 b_pyramid=2 b_adapt=2 b_bias=0 direct=3 weightb=1 open_gop=0 weightp=2 keyint=250 keyint_min=23 scenecut=40 intra_refresh=0 rc=crf mbtree=0 crf=17.0000 qcomp=0.60 qpmin=0 qpmax=69 qpstep=4 ip_ratio=1.40 pb_ratio=1.30 aq=1:1.00x264 [info]: frame I:1149 Avg QP:16.19 size: 55826x264 [info]: frame P:27786 Avg QP:17.47 size: 21134x264 [info]: frame B:89842 Avg QP:20.66 size: 6481x264 [info]: consecutive B-frames: 2.9% 3.1% 15.4% 17.9% 11.1% 45.2% 3.0% 0.8% 0.6%x264 [info]: mb I I16..4: 3.0% 82.9% 14.2%x264 [info]: mb P I16..4: 1.0% 19.6% 1.8% P16..4: 25.5% 28.9% 13.4% 1.5% 0.1% skip: 8.1%x264 [info]: mb B I16..4: 0.3% 2.8% 0.2% B16..8: 28.7% 20.5% 3.7% direct: 5.6% skip:38.2% L0:40.0% L1:40.9% BI:19.1%x264 [info]: 8x8 transform intra:86.0% inter:65.5%x264 [info]: direct mvs spatial:100.0% temporal:0.0%x264 [info]: coded y,uvDC,uvAC intra: 90.6% 94.3% 82.0% inter: 23.3% 24.4% 11.2%x264 [info]: i16 v,h,dc,p: 13% 12% 6% 69%x264 [info]: i8 v,h,dc,ddl,ddr,vr,hd,vl,hu: 11% 12% 13% 8% 10% 11% 10% 11% 14%x264 [info]: i4 v,h,dc,ddl,ddr,vr,hd,vl,hu: 12% 22% 7% 7% 12% 11% 11% 8% 11%x264 [info]: i8c dc,h,v,p: 38% 24% 17% 21%x264 [info]: Weighted P-Frames: Y:12.2% UV:9.9%x264 [info]: ref P L0: 46.9% 9.2% 17.1% 5.0% 4.7% 3.1% 3.2% 1.6% 1.7% 1.3% 1.4% 1.1% 1.1% 0.9% 1.0% 0.7%x264 [info]: ref B L0: 79.4% 9.9% 3.3% 1.7% 1.1% 1.0% 0.8% 0.5% 0.4% 0.4% 0.4% 0.3% 0.3% 0.2% 0.1%x264 [info]: ref B L1: 93.2% 6.8%x264 [info]: kb/s:1992.13x264 [info]: encoded 118777 frames, 15.65 fps, 1992.13 kb/s, duration 2:06:31.78
GeneralUnique ID : 176410098358269953600751811180207241651 (0x84B7595E18B59A1CA52FFA822F6B79B3)Complete name : Jimmy.Neutron.Boy.Genius.2001.DVDRip.x264-rutracker.xfiles.mkvFormat : MatroskaFormat version : Version 4 / Version 2File size : 2.48 GiBDuration : 1h 22mnOverall bit rate : 4 300 KbpsMovie name : Jimmy.Neutron.Boy.Genius.2001.DVDRip.x264-rutracker.xfilesEncoded date : UTC 2015-01-04 17:25:28Writing application : mkvmerge v7.4.0 ('Circles') 64bit built on Dec 12 2014 12:19:56Writing library : libebml v1.3.0 + libmatroska v1.4.1Attachements : poster.jpg / x264.txt
VideoID : 1Format : AVCFormat/Info : Advanced Video CodecFormat profile : High@L4.0Format settings, CABAC : YesFormat settings, ReFrames : 16 framesCodec ID : V_MPEG4/ISO/AVCDuration : 1h 22mnBit rate : 1 992 KbpsWidth : 708 pixelsHeight : 478 pixelsDisplay aspect ratio : 16:9Frame rate mode : ConstantFrame rate : 23.976 fpsColor space : YUVChroma subsampling : 4:2:0Bit depth : 8 bitsScan type : ProgressiveBits/(Pixel*Frame) : 0.235Stream size : 1.10 GiB (44%)Title : http://rutracker.org/forum/viewtopic.php?t=4904597Writing library : x264 core 144 r2525kMod 40bb568Encoding settings : cabac=1 / ref=16 / deblock=1:-1:-1 / analyse=0x3:0x133 / me=umh / subme=11 / psy=1 / fade_compensate=0.00 / psy_rd=0.60:0.00 / mixed_ref=1 /me_range=48 / chroma_me=1 / trellis=2 / 8x8dct=1 / cqm=0 / deadzone=21,11 / fast_pskip=0 / chroma_qp_offset=-2 / threads=12 / lookahead_threads=2 / sliced_threads=0 / nr=0 /decimate=1 / interlaced=0 / bluray_compat=0 / constrained_intra=0 / fgo=0 / bframes=8 / b_pyramid=2 / b_adapt=2 / b_bias=0 / direct=3 / weightb=1 / open_gop=0 / weightp=2 /keyint=250 / keyint_min=23 / scenecut=40 / intra_refresh=0 / rc=crf / mbtree=0 / crf=17.0000 / qcomp=0.60 / qpmin=0 / qpmax=69 / qpstep=4 / ip_ratio=1.40 / pb_ratio=1.30 / aq=1:1.00Language : EnglishDefault : YesForced : NoColor primaries : BT.601 NTSCTransfer characteristics : BT.601Matrix coefficients : BT.601Color range : Limited
Audio #1ID : 2Format : AC-3Format/Info : Audio Coding 3Mode extension : CM (complete main)Format settings, Endianness : BigCodec ID : A_AC3Duration : 1h 22mnBit rate mode : ConstantBit rate : 224 KbpsChannel(s) : 2 channelsChannel positions : Front: L RSampling rate : 48.0 KHzBit depth : 16 bitsCompression mode : LossyStream size : 132 MiB (5%)Title : Дубляж | СТСLanguage : RussianDefault : YesForced : No
Audio #2ID : 3Format : AC-3Format/Info : Audio Coding 3Mode extension : CM (complete main)Format settings, Endianness : BigCodec ID : A_AC3Duration : 1h 22mnBit rate mode : ConstantBit rate : 224 KbpsChannel(s) : 2 channelsChannel positions : Front: L RSampling rate : 48.0 KHzBit depth : 16 bitsCompression mode : LossyStream size : 132 MiB (5%)Title : Закадровый | Премьер Мультимедиа | VHS Hi-FiLanguage : RussianDefault : NoForced : No
Audio #3ID : 4Format : AC-3Format/Info : Audio Coding 3Mode extension : CM (complete main)Format settings, Endianness : BigCodec ID : A_AC3Duration : 1h 22mnBit rate mode : ConstantBit rate : 384 KbpsChannel(s) : 6 channelsChannel positions : Front: L C R, Side: L R, LFESampling rate : 48.0 KHzBit depth : 16 bitsCompression mode : LossyStream size : 227 MiB (9%)Title : Закадровый | DVD R7Language : RussianDefault : NoForced : No
Audio #4ID : 5Format : AC-3Format/Info : Audio Coding 3Mode extension : CM (complete main)Format settings, Endianness : BigCodec ID : A_AC3Duration : 1h 22mnBit rate mode : ConstantBit rate : 448 KbpsChannel(s) : 6 channelsChannel positions : Front: L C R, Side: L R, LFESampling rate : 48.0 KHzBit depth : 16 bitsCompression mode : LossyStream size : 265 MiB (10%)Title : Закадровый | Пётр ГланцLanguage : RussianDefault : NoForced : No
Audio #5ID : 6Format : AC-3Format/Info : Audio Coding 3Mode extension : CM (complete main)Format settings, Endianness : BigCodec ID : A_AC3Duration : 1h 22mnBit rate mode : ConstantBit rate : 448 KbpsChannel(s) : 6 channelsChannel positions : Front: L C R, Side: L R, LFESampling rate : 48.0 KHzBit depth : 16 bitsCompression mode : LossyStream size : 265 MiB (10%)Title : Закадровый | Евгений ГранкинLanguage : RussianDefault : NoForced : No
Audio #6ID : 7Format : AC-3Format/Info : Audio Coding 3Mode extension : CM (complete main)Format settings, Endianness : BigCodec ID : A_AC3Duration : 1h 22mnBit rate mode : ConstantBit rate : 128 KbpsChannel(s) : 1 channelChannel positions : Front: CSampling rate : 48.0 KHzBit depth : 16 bitsCompression mode : LossyStream size : 75.6 MiB (3%)Title : Закадровий | ІнтерLanguage : UkrainianDefault : NoForced : No
Audio #7ID : 8Format : AC-3Format/Info : Audio Coding 3Mode extension : CM (complete main)Format settings, Endianness : BigCodec ID : A_AC3Duration : 1h 22mnBit rate mode : ConstantBit rate : 448 KbpsChannel(s) : 6 channelsChannel positions : Front: L C R, Side: L R, LFESampling rate : 48.0 KHzBit depth : 16 bitsCompression mode : LossyStream size : 265 MiB (10%)Title : OriginalLanguage : EnglishDefault : NoForced : No
TextID : 9Format : UTF-8Codec ID : S_TEXT/UTF8Codec ID/Info : UTF-8 Plain TextLanguage : EnglishDefault : NoForced : No
Menu00:00:00.000 : en:01. Communication Toaster00:06:00.967 : en:02. Show And Tell00:13:32.901 : en:03. Butter 'Em Up00:22:00.001 : en:04. Sneaking Out00:28:49.501 : en:05. Retroland00:34:17.734 : en:06. No Parents00:39:11.734 : en:07. We're Getting Our Parents Back00:46:56.967 : en:08. Asteroid Camp00:52:45.901 : en:09. The Littlest Rescue Party00:57:48.868 : en:10. A Few Kind Words01:03:34.468 : en:11. Carbonated Life Forms01:11:55.268 : en:12. Big Brain01:16:52.801 : en:13. End Titles

Скриншоты


_________________
Показать сообщения:    

Текущее время: Сегодня 13:12

Часовой пояс: GMT



Вы не можете начинать темы
Вы не можете отвечать на сообщения
Вы не можете редактировать свои сообщения
Вы не можете удалять свои сообщения
Вы не можете голосовать в опросах
Вы не можете прикреплять файлы к сообщениям
Вы не можете скачивать файлы