Важное объявление!
У Нас Все раздачи мультитрекерные, при нуле пиров в релизах, можете смело вставать на закачку!
 
Автор Сообщение

HUNTER

Стаж:
4 года 4 месяца
Сообщений:
56808

Репутация: 101

[+] [-]
Вне форума [Профиль] [ЛС]

Джимены / Джимэны / 'G' Men / G-Men
Страна: США
Жанр: фильм-нуар, триллер, драма, криминал
Год выпуска: 1935
Продолжительность: 01:26:21
Перевод: Профессиональный (многоголосый закадровый)
Cубтитры: нет
Оригинальная аудиодорожка: английский
Режиссер: Уильям Кили / William Keighley
В ролях: Джеймс Кэгни, Маргарет Линдсей, Энн Дворак, Роберт Армстронг, Бартон МакЛэйн, Ллойд Нолан, Уильям Харриган, Расселл Хоптон, Эдвард Поли, Ноэль Мэдисон
Описание: Джеймс Дэвис по прозвищу «Кирпич» рос фактически на улице и наверняка оказался бы в команде гангстера МакКэя. Однажды Эд Бьюкенен, старый приятель «Кирпича», предлагает Джеймсу поступить на работу в ФБР, в только что организованный отряд «джи-менов».
Джеймс гневно отвергает предложение друга, но вскоре узнает о гибели Эда, убитого при исполнении служебных обязанностей. И тогда «Кирпич» идет в ФБР, чтобы, во-первых, завязать со своим прошлым, и во-вторых, иметь возможность отомстить за смерть друга…
Доп. информация:


За русскую дорожку спасибо MadDoctor
Сэмпл: http://sendfile.su/1021960
Тип релиза: WEB-DL 720p
Контейнер: MKV
Видео: AVC, 986x720, L3.1, 23.976fps, 4002kbps
Аудио 1: Russian: AC3, 48000Hz, 2ch, 192kbps
Аудио 2: English: AC3, 48000Hz, 1ch, 192kbps - DVD
Аудио 3: English: AAC, 48000Hz, 2ch, 139kbps - WEB-DL

MediaInfo

Общее
Уникальный идентификатор : 185131865753767693698667697629894000747 (0x8B4719B342A6728B8D7A4E3B03FBC06B)
Полное имя : T:\Джимены (G-Men) (WEB-DL 720p).mkv
Формат : Matroska
Версия формата : Version 4 / Version 2
Размер файла : 2,73 Гбайт
Продолжительность : 1 ч. 26 м.
Общий поток : 4525 Кбит/сек
Дата кодирования : UTC 2014-09-12 05:22:02
Программа кодирования : mkvmerge v6.9.1 ('Blue Panther') 64bit built on Apr 18 2014 18:23:38
Библиотека кодирования : libebml v1.3.0 + libmatroska v1.4.1
Видео
Идентификатор : 1
Формат : AVC
Формат/Информация : Advanced Video Codec
Профиль формата : High@L3.1
Параметр CABAC формата : Нет
Параметр ReFrames формата : 2 кадра
Идентификатор кодека : V_MPEG4/ISO/AVC
Продолжительность : 1 ч. 26 м.
Ширина : 986 пикселей
Высота : 720 пикселей
Соотношение сторон : 4:3
Режим частоты кадров : Постоянный
Частота кадров : 23,976 кадра/сек
Цветовое пространство : YUV
Субдискретизация насыщенности : 4:2:0
Битовая глубина : 8 бит
Тип развёртки : Прогрессивная
Язык : English
Default : Да
Forced : Нет
Основные цвета : BT.709
Характеристики трансфера : BT.709
Коэффициенты матрицы : BT.709
Аудио #1
Идентификатор : 2
Формат : AC-3
Формат/Информация : Audio Coding 3
Расширение режима : CM (complete main)
Параметр Endianness формата : Big
Идентификатор кодека : A_AC3
Продолжительность : 1 ч. 26 м.
Вид битрейта : Постоянный
Битрейт : 192 Кбит/сек
Каналы : 2 канала
Расположение каналов : Front: L R
Частота : 48,0 КГц
Битовая глубина : 16 бит
Метод сжатия : С потерями
Размер потока : 119 Мбайт (4%)
Язык : Russian
Default : Да
Forced : Нет
Аудио #2
Идентификатор : 3
Формат : AC-3
Формат/Информация : Audio Coding 3
Расширение режима : CM (complete main)
Параметр Endianness формата : Big
Идентификатор кодека : A_AC3
Продолжительность : 1 ч. 26 м.
Вид битрейта : Постоянный
Битрейт : 192 Кбит/сек
Каналы : 1 канал
Расположение каналов : Front: C
Частота : 48,0 КГц
Битовая глубина : 16 бит
Метод сжатия : С потерями
Размер потока : 119 Мбайт (4%)
Заголовок : DVD
Язык : English
Default : Нет
Forced : Нет
Аудио #3
Идентификатор : 4
Формат : AAC
Формат/Информация : Advanced Audio Codec
Профиль формата : LC
Идентификатор кодека : A_AAC
Продолжительность : 1 ч. 26 м.
Каналы : 2 канала
Расположение каналов : Front: L R
Частота : 48,0 КГц
Метод сжатия : С потерями
Заголовок : WEB-DL
Язык : English
Default : Нет
Forced : Нет
Меню
00:00:00.000 : en:Prologue and Credits.
00:03:00.000 : en:Honest lawyer stuff.
00:08:02.000 : en:Death of a friend.
00:11:56.000 : en:You Bother Me an Awful Lot.
00:13:36.000 : en:Squaring things with Mac.
00:17:54.000 : en:Goodbyes.
00:20:34.000 : en:His personal attention.
00:23:50.000 : en:Thanks for the workout.
00:28:17.000 : en:On the offensive.
00:30:47.000 : en:Not his assignment.
00:35:18.000 : en:Passing through.
00:39:05.000 : en:Don't kick me out.
00:42:09.000 : en:Capturing Leggett.
00:45:55.000 : en:Rail station raid.
00:50:00.000 : en:Recapturing Leggett.
00:53:26.000 : en:Message from Gerard.
00:56:57.000 : en:Escorts to prison.
00:59:27.000 : en:Mob whereabouts.
01:03:43.000 : en:Storming Mac's lodge.
01:07:20.000 : en:Fatal for the front man.
01:09:40.000 : en:Collins returns.
01:12:43.000 : en:Bullet-riddled escape.
01:15:01.000 : en:Between two women.
01:17:08.000 : en:Double jeopardy.
01:20:36.000 : en:Kiss a friend goodbye.
01:22:55.000 : en:Her personal attention.

Скриншоты


_________________
Показать сообщения:    

Текущее время: Сегодня 08:52

Часовой пояс: GMT



Вы не можете начинать темы
Вы не можете отвечать на сообщения
Вы не можете редактировать свои сообщения
Вы не можете удалять свои сообщения
Вы не можете голосовать в опросах
Вы не можете прикреплять файлы к сообщениям
Вы не можете скачивать файлы