Важное объявление!
У Нас Все раздачи мультитрекерные, при нуле пиров в релизах, можете смело вставать на закачку!
 
Автор Сообщение

HUNTER

Стаж:
4 года 4 месяца
Сообщений:
56722

Репутация: 101

[+] [-]
Вне форума [Профиль] [ЛС]

-Дженнифер 8 / Jennifer Eight-Страна: США
Студия: Paramount Pictures
Жанр: триллер, драма, криминал, детектив
Год выпуска: 1992
Продолжительность: 02:05:20-Перевод : Профессиональный (двухголосый закадровый) Paramount channel
Перевод 2: Профессиональный (многоголосый закадровый) СТС
Перевод 3: Авторский (одноголосый закадровый) Андрей Гаврилов
Перевод 4: Авторский (одноголосый закадровый) Леонид Володарский
Cубтитры: английские
Оригинальная аудиодорожка: английский-Режиссер: Брюс Робинсон / Bruce Robinson
В ролях: Энди Гарсиа, Ума Турман, Лэнс Хенриксен, Кэти Бейкер, Грэм Беккел, Кевин Конуэй, Джон Малкович, Ленни Фон Долен, Пол Бэйтс, Перри Лэнг, Николас Лав, Брайан Ларкин, Майкл О'Нейлл, Роберт Гантон-Описание: У детектива Джона Берлина, идущего по следу серийного убийцы, нет ни улик, ни подозреваемых. И нет алиби. Уставший от напряженного ритма «каменных джунглей», приходящий в себя после неудачного брака, только излечившийся от алкоголизма лос-анжелесский полицейский Джон Берлин решает сменить обстановку.
Он принимает приглашение своего друга и коллеги и приезжает в маленький городок на севере Калифорнии. Но вместо желанной тихой сельской жизни Джону приходится включиться в поиски серийного убийцы, чьими жертвами стали семь молоденьких слепых девушек.-II Сэмпл II IMDB II-Доп. информация:-Тип релиза: BDRip 720p
Контейнер: MKV
Видео: AVC / 1280 x 718 / 16:9 / 23.976fps / Bit rate 8354 Kbps / High@L4.1
Аудио 1: AC3 / 48.0KHz / 2ch. / 192kbps / rus / dvo / Paramount channel
Аудио 2: AC3 / 48.0KHz / 2ch. / 192kbps / rus / mvo / CTC
Аудио 3: AC3 / 48.0KHz / 2ch. / 192kbps / rus / avo / А. Гаврилов
Аудио 4: AC3 / 48.0KHz / 2ch. / 192kbps / rus / avo / Л. Володарский
Аудио 5: AC3 / 48KHz / 6ch / 640Kbps / eng
Формат субтитров: softsub (SRT)

Видеоряд от EbP

Movie InfoGENRE.........: Crime | Drama | MysteryIMDB RATING...: 6,1/10 from 9.189 usersLINK..........: http://www.imdb.com/title/tt0104549/
Release InfoRELEASE NAME..: Jennifer.Eight 1992.720p.bluRay.DD5.1.x264-EbPRELEASE DATE..: 09/13/2013RELEASE SIZE..: 8.04 GBRUNTIME.......: 2h 05mnVIDEO CODEC...: x264, 2pass, L4.1FRAMERATE.....: 23.976 fpsBITRATE.......: 8 500 KbpsRESOLUTION....: 1280 x 718AUDIO 1.......: AC3 5.1 @ 640 KbpsSUBTITLES.....: English,French,SpanishCHAPTERS......: IncludedSOURCE........: Jennifer Eight 1992 1080p Blu-ray AVC DTS-HD MA 5.1-LAZERS (hz101)
x264 Info
x264 [info]: frame I:1030 Avg QP:14.76 size:146552x264 [info]: frame P:37079 Avg QP:16.57 size: 76743x264 [info]: frame B:142196 Avg QP:18.56 size: 35106x264 [info]: consecutive B-frames: 1.0% 1.7% 4.1% 24.4% 18.1% 42.4% 4.1% 3.6% 0.3% 0.2%
encoded 180305 frames, 2.15 fps, 8498.14 kb/s
Source | Encode: http://imgbox.com/g/G0KG9jqobS

MI

Код:
General
Unique ID                                : 183116915728570558335397378062247927177 (0x89C308FE725C24788626E728486E1D89)
Complete name                            : X:\  -= Фильмы =-\Дженнифер 8 (1992. Jennifer Eight) 720p.mkv
Format                                   : Matroska
Format version                           : Version 2
File size                                : 8.68 GiB
Duration                                 : 2h 5mn
Overall bit rate                         : 9 908 Kbps
Movie name                               : Release for RuTracker
Encoded date                             : UTC 2014-11-12 16:38:19
Writing application                      : mkvmerge v4.9.1 ('Ich will') сборка от Jul 11 2011 23:53:15
Writing library                          : libebml v1.2.1 + libmatroska v1.1.1
Video
ID                                       : 1
Format                                   : AVC
Format/Info                              : Advanced Video Codec
Format profile                           : High@L4.1
Format settings, CABAC                   : Yes
Format settings, ReFrames                : 9 frames
Codec ID                                 : V_MPEG4/ISO/AVC
Duration                                 : 2h 5mn
Bit rate                                 : 8 302 Kbps
Width                                    : 1 280 pixels
Height                                   : 718 pixels
Display aspect ratio                     : 16:9
Frame rate mode                          : Constant
Frame rate                               : 23.976 fps
Color space                              : YUV
Chroma subsampling                       : 4:2:0
Bit depth                                : 8 bits
Scan type                                : Progressive
Bits/(Pixel*Frame)                       : 0.377
Stream size                              : 7.27 GiB (84%)
Title                                    : Jennifer.Eight 1992.720p.BluRay.DD5.1.x264-EbP
Language                                 : English
Default                                  : Yes
Forced                                   : No
Audio #1
ID                                       : 2
Format                                   : AC-3
Format/Info                              : Audio Coding 3
Mode extension                           : CM (complete main)
Format settings, Endianness              : Big
Codec ID                                 : A_AC3
Duration                                 : 2h 5mn
Bit rate mode                            : Constant
Bit rate                                 : 192 Kbps
Channel(s)                               : 2 channels
Channel positions                        : Front: L R
Sampling rate                            : 48.0 KHz
Bit depth                                : 16 bits
Compression mode                         : Lossy
Stream size                              : 172 MiB (2%)
Title                                    : DVO [Paramount channel]
Language                                 : Russian
Default                                  : Yes
Forced                                   : No
Audio #2
ID                                       : 3
Format                                   : AC-3
Format/Info                              : Audio Coding 3
Mode extension                           : CM (complete main)
Format settings, Endianness              : Big
Codec ID                                 : A_AC3
Duration                                 : 2h 5mn
Bit rate mode                            : Constant
Bit rate                                 : 192 Kbps
Channel(s)                               : 2 channels
Channel positions                        : Front: L R
Sampling rate                            : 48.0 KHz
Bit depth                                : 16 bits
Compression mode                         : Lossy
Stream size                              : 172 MiB (2%)
Title                                    : MVO [CTC]
Language                                 : Russian
Default                                  : No
Forced                                   : No
Audio #3
ID                                       : 4
Format                                   : AC-3
Format/Info                              : Audio Coding 3
Mode extension                           : CM (complete main)
Format settings, Endianness              : Big
Codec ID                                 : A_AC3
Duration                                 : 2h 5mn
Bit rate mode                            : Constant
Bit rate                                 : 192 Kbps
Channel(s)                               : 2 channels
Channel positions                        : Front: L R
Sampling rate                            : 48.0 KHz
Bit depth                                : 16 bits
Compression mode                         : Lossy
Stream size                              : 172 MiB (2%)
Title                                    : Андрей Гаврилов
Language                                 : Russian
Default                                  : No
Forced                                   : No
Audio #4
ID                                       : 5
Format                                   : AC-3
Format/Info                              : Audio Coding 3
Mode extension                           : CM (complete main)
Format settings, Endianness              : Big
Codec ID                                 : A_AC3
Duration                                 : 2h 5mn
Bit rate mode                            : Constant
Bit rate                                 : 192 Kbps
Channel(s)                               : 2 channels
Channel positions                        : Front: L R
Sampling rate                            : 48.0 KHz
Bit depth                                : 16 bits
Compression mode                         : Lossy
Stream size                              : 172 MiB (2%)
Title                                    : Леонид Володарский
Language                                 : Russian
Default                                  : No
Forced                                   : No
Audio #5
ID                                       : 6
Format                                   : AC-3
Format/Info                              : Audio Coding 3
Mode extension                           : CM (complete main)
Format settings, Endianness              : Big
Codec ID                                 : A_AC3
Duration                                 : 2h 5mn
Bit rate mode                            : Constant
Bit rate                                 : 640 Kbps
Channel(s)                               : 6 channels
Channel positions                        : Front: L C R, Side: L R, LFE
Sampling rate                            : 48.0 KHz
Bit depth                                : 16 bits
Compression mode                         : Lossy
Stream size                              : 574 MiB (6%)
Language                                 : English
Default                                  : No
Forced                                   : No
Text
ID                                       : 7
Format                                   : UTF-8
Codec ID                                 : S_TEXT/UTF8
Codec ID/Info                            : UTF-8 Plain Text
Language                                 : English
Default                                  : No
Forced                                   : No
Menu
00:00:00.000                             : en:00:00:00.000
00:11:33.443                             : en:00:11:33.443
00:19:39.053                             : en:00:19:39.053
00:29:04.993                             : en:00:29:04.993
00:38:25.637                             : en:00:38:25.637
00:48:24.902                             : en:00:48:24.902
00:52:44.286                             : en:00:52:44.286
01:00:04.768                             : en:01:00:04.768
01:06:34.699                             : en:01:06:34.699
01:08:41.534                             : en:01:08:41.534
01:21:18.082                             : en:01:21:18.082
01:31:50.797                             : en:01:31:50.797
01:38:00.416                             : en:01:38:00.416
01:41:18.155                             : en:01:41:18.155
01:48:30.629                             : en:01:48:30.629
01:58:26.016                             : en:01:58:26.016

Скриншоты



Зеркало


Цитата:
Цитата:

  • За исходник спасибо Alan James
  • Первая дорога записана с т/к Paramount channel
  • Оформление и дороги позаимствованы у vedigo

_________________
Показать сообщения:    

Текущее время: Сегодня 13:44

Часовой пояс: GMT



Вы не можете начинать темы
Вы не можете отвечать на сообщения
Вы не можете редактировать свои сообщения
Вы не можете удалять свои сообщения
Вы не можете голосовать в опросах
Вы не можете прикреплять файлы к сообщениям
Вы не можете скачивать файлы