Важное объявление!
У Нас Все раздачи мультитрекерные, при нуле пиров в релизах, можете смело вставать на закачку!
 
Автор Сообщение

HUNTER

Стаж:
4 года 4 месяца
Сообщений:
56829

Репутация: 101

[+] [-]
Вне форума [Профиль] [ЛС]

Джеки Браун / Jackie Brown-
Год выпуска: 1997
Страна: США
Жанр: триллер, драма, криминал
Продолжительность: 02:34:20
Перевод: Профессиональный (многоголосый, закадровый) West Video
+ Профессиональный (двухголосый, закадровый) Супербит
+ Профессиональный (двухголосый, закадровый) Премьер Мультимедиа
+ Авторский одноголосый А.Гаврилов
+ Авторский одноголосый Ю.Живов
+ Одноголосый закадровый М.Чадов
Оригинальная звуковая дорожка: English
Cубтитры: Russian, English-Режиссер: Квентин Тарантино / Quentin Tarantino
В ролях: Пэм Гриер, Сэмюэл Л. Джексон, Роберт Форстер, Бриджит Фонда, Майкл Китон, Роберт Де Ниро, Майкл Боуэн, Крис Такер, Лиза Гэй Хэмилтон, Том «Тайни» Листер мл.
О фильме: Фильм поставлен по роману Элмора Леонарда. Героиня по имени Джекки Браун работает стюардессой и подрабатывает контрабандой наличных денег в страну для торговца оружием. Все складывается отлично до того момента, пока ее не арестовывают федеральные агенты.
На свободе она может остаться, только «заложив» торговца. Рисковая девушка принимает решение и «пол-лимона зеленых» присвоить, и от торговца оружием избавиться. А вот останется ли она сама в живых?…-SbR!
Релиз:
Формат: MKV
Видео: 1280x696 at 23.976 fps, x264@L4.1, ~9289 kbps avg
Аудио #01: Russian: 48 kHz/16-bit, DTS, 3/2 (L,C,R,l,r) + LFE ch,~1509.00 kbps avg |Многоголосый закадровый, West Video|
Аудио #02: Russian: 48 kHz, DTS, 3/2 (L,C,R,l,r) + LFE ch, ~755.00 kbps avg |Двухголосый закадровый, Супербит|
Аудио #03: Russian: 48 kHz, AC3, 2/0 (L,R) ch, ~192.00 kbps avg |Двухголосый закадровый, Премьер Мультимедия|
Аудио #04: Russian: 48 kHz/16-bit, DTS, 3/2 (L,C,R,l,r) + LFE ch,~1509.00 kbps avg |Одноголосый закадровый, А. Гаврилов|
Аудио #05: Russian: 48 kHz/16-bit, DTS, 3/2 (L,C,R,l,r) + LFE ch,~1509.00 kbps avg |Одноголосый закадровый, Ю. Живов|
Аудио #06: Russian: 48 kHz, AC3, 3/2 (L,C,R,l,r) + LFE ch, ~384.00 kbps avg |Одноголосый закадровый, М. Чадов|
Аудио #07: English: 48 kHz/16-bit, DTS, 3/2 (L,C,R,l,r) + LFE ch,~1509.00 kbps avg
Семпл-
-

mInfo

Формат : Matroska
Версия формата : Version 4 / Version 2
Размер файла : 18,3 Гбайт
Продолжительность : 2 ч. 34 м.
Общий поток : 17,0 Мбит/сек
Дата кодирования : UTC 2013-12-30 22:07:13
Программа кодирования : mkvmerge v6.6.0 ('The Edge Of The In Between') built on Dec 1 2013 17:55:00
Библиотека кодирования : libebml v1.3.0 + libmatroska v1.4.1
Видео
Идентификатор : 1
Формат : AVC
Формат/Информация : Advanced Video Codec
Профиль формата : High@L4.1
Параметр CABAC формата : Да
Параметр ReFrames формата : 9 кадров
Идентификатор кодека : V_MPEG4/ISO/AVC
Продолжительность : 2 ч. 34 м.
Битрейт : 9289 Кбит/сек
Ширина : 1280 пикселей
Высота : 696 пикселей
Соотношение сторон : 1,85:1
Режим частоты кадров : Постоянный
Частота кадров : 23,976 кадра/сек
Цветовое пространство : YUV
Субдискретизация насыщенности : 4:2:0
Битовая глубина : 8 бит
Тип развёртки : Прогрессивная
Бит/(Пиксели*Кадры) : 0.435
Размер потока : 10,0 Гбайт (55%)
Библиотека кодирования : x264 core 140 r2377kMod 1ca7bb9
Настройки программы : cabac=1 / ref=9 / deblock=1:-3:-3 / analyse=0x3:0x113 / me=umh / subme=11 / psy=1 / fade_compensate=0.00 / psy_rd=1.00:0.00 / mixed_ref=1 / me_range=32 / chroma_me=1 / trellis=2 / 8x8dct=1 / cqm=0 / deadzone=21,11 / fast_pskip=0 / chroma_qp_offset=-2 / threads=6 / lookahead_threads=1 / sliced_threads=0 / nr=0 / decimate=1 / interlaced=0 / bluray_compat=0 / constrained_intra=0 / fgo=0 / bframes=12 / b_pyramid=2 / b_adapt=2 / b_bias=0 / direct=3 / weightb=1 / open_gop=0 / weightp=2 / keyint=250 / keyint_min=23 / scenecut=40 / intra_refresh=0 / rc=crf / mbtree=0 / crf=14.5000 / qcomp=0.70 / qpmin=0 / qpmax=69 / qpstep=4 / ip_ratio=1.30 / pb_ratio=1.20 / aq=1:0.80
Язык : English
Default : Да
Forced : Нет
Основные цвета : BT.709
Характеристики трансфера : BT.709
Коэффициенты матрицы : BT.709
Аудио #1
Идентификатор : 2
Формат : DTS
Формат/Информация : Digital Theater Systems
Режим : 16
Параметр Endianness формата : Big
Идентификатор кодека : A_DTS
Продолжительность : 2 ч. 34 м.
Вид битрейта : Постоянный
Битрейт : 1509 Кбит/сек
Каналы : 6 каналов
Расположение каналов : Front: L C R, Side: L R, LFE
Частота : 48,0 КГц
Битовая глубина : 16 бит
Метод сжатия : С потерями
Размер потока : 1,63 Гбайт (9%)
Заголовок : Многоголосый закадровый, West Video
Язык : Russian
Default : Да
Forced : Нет
Аудио #2
Идентификатор : 3
Формат : DTS
Формат/Информация : Digital Theater Systems
Режим : 16
Параметр Endianness формата : Big
Идентификатор кодека : A_DTS
Продолжительность : 2 ч. 34 м.
Вид битрейта : Постоянный
Битрейт : 755 Кбит/сек
Каналы : 6 каналов
Расположение каналов : Front: L C R, Side: L R, LFE
Частота : 48,0 КГц
Битовая глубина : 24 бит
Метод сжатия : С потерями
Размер потока : 833 Мбайт (4%)
Заголовок : Двухголосый закадровый, Супербит
Язык : Russian
Default : Нет
Forced : Нет
Аудио #3
Идентификатор : 4
Формат : AC-3
Формат/Информация : Audio Coding 3
Расширение режима : CM (complete main)
Параметр Endianness формата : Big
Идентификатор кодека : A_AC3
Продолжительность : 2 ч. 34 м.
Вид битрейта : Постоянный
Битрейт : 192 Кбит/сек
Каналы : 2 канала
Расположение каналов : Front: L R
Частота : 48,0 КГц
Битовая глубина : 16 бит
Метод сжатия : С потерями
Размер потока : 212 Мбайт (1%)
Заголовок : Двухголосый закадровый, Премьер Мультимедия
Язык : Russian
Default : Нет
Forced : Нет
Аудио #4
Идентификатор : 5
Формат : DTS
Формат/Информация : Digital Theater Systems
Режим : 16
Параметр Endianness формата : Big
Идентификатор кодека : A_DTS
Продолжительность : 2 ч. 34 м.
Вид битрейта : Постоянный
Битрейт : 1509 Кбит/сек
Каналы : 6 каналов
Расположение каналов : Front: L C R, Side: L R, LFE
Частота : 48,0 КГц
Битовая глубина : 16 бит
Метод сжатия : С потерями
Размер потока : 1,63 Гбайт (9%)
Заголовок : Одноголосый закадровый, А. Гаврилов
Язык : Russian
Default : Нет
Forced : Нет
Аудио #5
Идентификатор : 6
Формат : DTS
Формат/Информация : Digital Theater Systems
Режим : 16
Параметр Endianness формата : Big
Идентификатор кодека : A_DTS
Продолжительность : 2 ч. 34 м.
Вид битрейта : Постоянный
Битрейт : 1509 Кбит/сек
Каналы : 6 каналов
Расположение каналов : Front: L C R, Side: L R, LFE
Частота : 48,0 КГц
Битовая глубина : 16 бит
Метод сжатия : С потерями
Размер потока : 1,63 Гбайт (9%)
Заголовок : Одноголосый закадровый, Ю. Живов
Язык : Russian
Default : Нет
Forced : Нет
Аудио #6
Идентификатор : 7
Формат : AC-3
Формат/Информация : Audio Coding 3
Расширение режима : CM (complete main)
Параметр Endianness формата : Big
Идентификатор кодека : A_AC3
Продолжительность : 2 ч. 34 м.
Вид битрейта : Постоянный
Битрейт : 384 Кбит/сек
Каналы : 6 каналов
Расположение каналов : Front: L C R, Side: L R, LFE
Частота : 48,0 КГц
Битовая глубина : 16 бит
Метод сжатия : С потерями
Размер потока : 424 Мбайт (2%)
Заголовок : Одноголосый закадровый, М. Чадов
Язык : Russian
Default : Нет
Forced : Нет
Аудио #7
Идентификатор : 8
Формат : DTS
Формат/Информация : Digital Theater Systems
Режим : 16
Параметр Endianness формата : Big
Идентификатор кодека : A_DTS
Продолжительность : 2 ч. 34 м.
Вид битрейта : Постоянный
Битрейт : 1509 Кбит/сек
Каналы : 6 каналов
Расположение каналов : Front: L C R, Side: L R, LFE
Частота : 48,0 КГц
Битовая глубина : 16 бит
Метод сжатия : С потерями
Размер потока : 1,63 Гбайт (9%)
Язык : English
Default : Нет
Forced : Нет
Текст #1
Идентификатор : 9
Формат : UTF-8
Идентификатор кодека : S_TEXT/UTF8
Идентификатор кодека/Информация : UTF-8 Plain Text
Заголовок : West Video
Язык : Russian
Default : Нет
Forced : Нет
Текст #2
Идентификатор : 10
Формат : UTF-8
Идентификатор кодека : S_TEXT/UTF8
Идентификатор кодека/Информация : UTF-8 Plain Text
Заголовок : SDH
Язык : English
Default : Нет
Forced : Нет
Меню
00:00:00.000 : en:00:00:00.000
00:10:32.130 : en:00:10:32.130
00:23:35.663 : en:00:23:35.663
00:35:41.264 : en:00:35:41.264
00:39:43.380 : en:00:39:43.380
00:46:03.052 : en:00:46:03.052
01:00:19.532 : en:01:00:19.532
01:13:09.342 : en:01:13:09.342
01:24:15.132 : en:01:24:15.132
01:31:27.231 : en:01:31:27.231
01:38:46.587 : en:01:38:46.587
01:54:03.336 : en:01:54:03.336
02:06:02.971 : en:02:06:02.971
02:18:26.130 : en:02:18:26.130
02:24:27.742 : en:02:24:27.742
02:30:12.670 : en:02:30:12.670

-
Цитата:
Цитата:

* Сохранены оригинальные чаптеры с Blu-Ray
* Дорожки №1,4-5 получены наложением выделенного/чистого голоса на центр декодированного DTS-HD MA
* За Чадова спасибо mihey10
* Дорожки 2 и 6 подогнаны eac3to без пережатия
-

_________________
Показать сообщения:    

Текущее время: Сегодня 15:41

Часовой пояс: GMT



Вы не можете начинать темы
Вы не можете отвечать на сообщения
Вы не можете редактировать свои сообщения
Вы не можете удалять свои сообщения
Вы не можете голосовать в опросах
Вы не можете прикреплять файлы к сообщениям
Вы не можете скачивать файлы