Важное объявление!
У Нас Все раздачи мультитрекерные, при нуле пиров в релизах, можете смело вставать на закачку!
 
Автор Сообщение

HUNTER

Стаж:
4 года 4 месяца
Сообщений:
56719

Репутация: 101

[+] [-]
Вне форума [Профиль] [ЛС]

Джек Хантер: В поисках сокровищ Угарита / Jack Hunter and the Lost Treasure of Ugarit
Год выпуска: 2008
Страна: США
Жанр: боевик, комедия, приключения
Перевод: Профессиональное (многоголосый, закадровый)
Продолжительность: 01:36:51
Субтитры: нет
Режиссер:Терри Каннингэм
В ролях: Иван Сергей, Джоан М. Келли, Туре Рифенстейн, Сьюзен Уорд, Шон Лолор.
Описание:Джек Хантер - археолог, охотник за сокровищами и просто искатель приключений - похищает фрагмент древний каменной плиты с клинописью из частного музея во Франции. Джек просит своего друга и наставника Фредерика , изучить похищенное сокровище, но его убивают, и камень вновь похищают. В поисках убийцы и похищенной реликвии, Джек отправляется в Сирию, где ему необходимо встретиться с доктором Али Мухаммедом, последним человеком, который звонил Фредерик, и неожиданно становится обладателем еще большого сокровища - скипетра, который являлся обрамлением самого большого в Древнем мире бриллианта.
Качество: DVDRip(Исх. DVD9)
Формат: AVI
Видео: 720x400 (1.80:1), 25 fps, XviD build 50 ~1695 kbps avg, 0.23 bit/pixel
Аудио: 48 kHz, AC3 Dolby Digital, 3/2 (L,C,R,l,r) LFE ch, ~448 kbps

MediaInfo

Complete name : D:\Jack Hunter.Trilogy.chopper887\Jack Hunter-1.chopper887.avi
Format : AVI
Format/Info : Audio Video Interleave
File size : 1.46 GiB
Duration : 1h 36mn
Overall bit rate : 2 153 Kbps
Movie name : Jack Hunter-1.chopper887
Director : chopper887
Genre : Action/Adventure
Writing application : VirtualDubMod 1.5.10.3 | www.virtualdub-fr.org || (build 2550/release)
Original source form/Name : Movie Trailer
Video
ID : 0
Format : MPEG-4 Visual
Format profile : Advanced Simple@L5
Format settings, BVOP : 2
Format settings, QPel : No
Format settings, GMC : No warppoints
Format settings, Matrix : Custom
Codec ID : XVID
Codec ID/Hint : XviD
Duration : 1h 36mn
Bit rate : 1 696 Kbps
Width : 720 pixels
Height : 400 pixels
Display aspect ratio : 16:9
Frame rate : 25.000 fps
Color space : YUV
Chroma subsampling : 4:2:0
Bit depth : 8 bits
Scan type : Progressive
Compression mode : Lossy
Bits/(Pixel*Frame) : 0.236
Stream size : 1.15 GiB (79%)
Writing library : XviD 1.2.1 (UTC 2008-12-04)
Audio
ID : 1
Format : AC-3
Format/Info : Audio Coding 3
Mode extension : CM (complete main)
Codec ID : 2000
Duration : 1h 36mn
Bit rate mode : Constant
Bit rate : 448 Kbps
Channel(s) : 6 channels
Channel positions : Front: L C R, Side: L R, LFE
Sampling rate : 48.0 KHz
Bit depth : 16 bits
Compression mode : Lossy
Stream size : 310 MiB (21%)
Alignment : Split accross interleaves
Interleave, duration : 40 ms (1.00 video frame)
Interleave, preload duration : 500 ms

Скриншоты

Джек Хантер: Проклятие гробницы Эхнатона / Jack Hunter and the quest for Akhenaten's tomb
Год выпуска: 2008
Страна: США
Жанр: боевик, комедия, приключения
Перевод: Профессиональное (многоголосый, закадровый)
Продолжительность: 01:34:17
Субтитры: нет
Режиссер:Терри Каннингэм
В ролях: Иван Сергей, Джоан М. Келли, Туре Рифенстейн, Сьюзен Уорд, Шон Лолор.
Описание: Джек встречает Лиз Джонсон, агента национальной безопасности , которая объясняет ему, что обелиск с древними письменами найдены в Египте, являются звеном одной цепочки, связывающей гробницу фараона Эхнатона и затерянные сокровище Угарита. Джек берется за расследование. Похищение обелиска, погони за ним, путешествие вверх по Нилу, захват и пленение Джека и его попутчиков, сражения с регулярными бандами расхитителей гробниц и еще много приключений ждут Джека по дороге к спрятанной в песках Египта древней гробницы фараоны.
Качество: DVDRip(Исх. DVD9)
Формат: AVI
Видео: 720x400 (1.80:1), 25 fps, XviD build 50 ~1754 kbps avg, 0.24 bit/pixel
Аудио: 48 kHz, AC3 Dolby Digital, 3/2 (L,C,R,l,r) LFE ch, ~448 kbps

MediaInfo

General
Complete name : D:\Jack Hunter.Trilogy.chopper887\Jack Hunter-2.chopper887.avi
Format : AVI
Format/Info : Audio Video Interleave
File size : 1.46 GiB
Duration : 1h 34mn
Overall bit rate : 2 212 Kbps
Movie name : Jack Hunter-2.chopper887
Director : chopper887
Genre : Action/Adventure
Writing application : VirtualDubMod 1.5.10.3 | www.virtualdub-fr.org || (build 2550/release)
Original source form/Name : Movie
Video
ID : 0
Format : MPEG-4 Visual
Format profile : Advanced Simple@L5
Format settings, BVOP : 2
Format settings, QPel : No
Format settings, GMC : No warppoints
Format settings, Matrix : Custom
Codec ID : XVID
Codec ID/Hint : XviD
Duration : 1h 34mn
Bit rate : 1 754 Kbps
Width : 720 pixels
Height : 400 pixels
Display aspect ratio : 16:9
Frame rate : 25.000 fps
Color space : YUV
Chroma subsampling : 4:2:0
Bit depth : 8 bits
Scan type : Progressive
Compression mode : Lossy
Bits/(Pixel*Frame) : 0.244
Stream size : 1.16 GiB (79%)
Writing library : XviD 1.2.1 (UTC 2008-12-04)
Audio
ID : 1
Format : AC-3
Format/Info : Audio Coding 3
Mode extension : CM (complete main)
Codec ID : 2000
Duration : 1h 34mn
Bit rate mode : Constant
Bit rate : 448 Kbps
Channel(s) : 6 channels
Channel positions : Front: L C R, Side: L R, LFE
Sampling rate : 48.0 KHz
Bit depth : 16 bits
Compression mode : Lossy
Stream size : 302 MiB (20%)
Alignment : Split accross interleaves
Interleave, duration : 40 ms (1.00 video frame)
Interleave, preload duration : 500 ms

Скриншоты

Джек Хантер: Небесная звезда / Jack Hunter and the Star of Heaven
Год выпуска: 2008
Страна: США
Жанр: боевик, комедия, приключения
Перевод: Профессиональное (многоголосый, закадровый)
Продолжительность: 01:34:23
Субтитры: нет
Режиссер:Терри Каннингэм
В ролях: Иван Сергей, Джоан М. Келли, Туре Рифенстейн, Сьюзен Уорд, Шон Лолор.
Описание: Джек Хантер и три агента Национальной безопасности пробиваются в румынские воды через Чёрное море. Руководство Национальной безопасности получило сведения о том, что Альберт Литтерман, предпринимающий попытки найти глаз Небесной звезды, встречается там с боссом российской мафии. Агенту Лиз Джонсон надо во что бы то ни стало поймать Литтермана и помешать его попыткам. Джек показывает Лиз монету из могилы Эхнатона, подтверждающую, что католики вывезли сокровища и глаз Небесной звезды в Константинопаль (Стамбул сегодня). Он полагает, что, когда Османская империя пала, артефакты и реликвии были проданы на чёрном рынке. Джек Хантер отправляется на поиски Небесной звезды...
Качество: DVDRip(Исх. DVD9)
Формат: AVI
Видео: 720x400 (1.80:1), 25 fps, XviD build 50 ~1751 kbps avg, 0.24 bit/pixel
Аудио: 48 kHz, AC3 Dolby Digital, 3/2 (L,C,R,l,r) LFE ch, ~448 kbps

MediaInfo

General
Complete name : D:\Jack Hunter.Trilogy.chopper887\Jack Hunter-3.chopper887.avi
Format : AVI
Format/Info : Audio Video Interleave
File size : 1.46 GiB
Duration : 1h 34mn
Overall bit rate : 2 210 Kbps
Movie name : Jack Hunter-3.chopper887
Director : chopper887
Genre : Action/Adventure
Writing application : VirtualDubMod 1.5.10.3 | www.virtualdub-fr.org || (build 2550/release)
Original source form/Name : Movie
Video
ID : 0
Format : MPEG-4 Visual
Format profile : Advanced Simple@L5
Format settings, BVOP : 2
Format settings, QPel : No
Format settings, GMC : No warppoints
Format settings, Matrix : Custom
Codec ID : XVID
Codec ID/Hint : XviD
Duration : 1h 34mn
Bit rate : 1 752 Kbps
Width : 720 pixels
Height : 400 pixels
Display aspect ratio : 16:9
Frame rate : 25.000 fps
Color space : YUV
Chroma subsampling : 4:2:0
Bit depth : 8 bits
Scan type : Progressive
Compression mode : Lossy
Bits/(Pixel*Frame) : 0.243
Stream size : 1.15 GiB (79%)
Writing library : XviD 1.2.1 (UTC 2008-12-04)
Audio
ID : 1
Format : AC-3
Format/Info : Audio Coding 3
Mode extension : CM (complete main)
Codec ID : 2000
Duration : 1h 34mn
Bit rate mode : Constant
Bit rate : 448 Kbps
Channel(s) : 6 channels
Channel positions : Front: L C R, Side: L R, LFE
Sampling rate : 48.0 KHz
Bit depth : 16 bits
Compression mode : Lossy
Stream size : 302 MiB (20%)
Alignment : Split accross interleaves
Interleave, duration : 40 ms (1.00 video frame)
Interleave, preload duration : 500 ms

Скриншоты


_________________
Показать сообщения:    

Текущее время: Сегодня 05:11

Часовой пояс: GMT



Вы не можете начинать темы
Вы не можете отвечать на сообщения
Вы не можете редактировать свои сообщения
Вы не можете удалять свои сообщения
Вы не можете голосовать в опросах
Вы не можете прикреплять файлы к сообщениям
Вы не можете скачивать файлы