Важное объявление!
У Нас Все раздачи мультитрекерные, при нуле пиров в релизах, можете смело вставать на закачку!
 
Автор Сообщение

HUNTER

Стаж:
4 года 4 месяца
Сообщений:
56798

Репутация: 101

[+] [-]
Вне форума [Профиль] [ЛС]

-Джек – покоритель великанов / Jack the Giant Slayer-Гигантское развлечение для всей семьи
-Страна: США
Студия: Bad Hat Harry Productions, Big Kid Pictures, Legendary Pictures, New Line Cinema, Original Film, Warner Bros. Pictures
Жанр: фэнтези, приключения
Год выпуска: 2013
Мировая премьера: 27 февраля 2013
Российская премьера: 21 марта 2013, «Каро-Премьер» 3D
Дата выхода DVD: 20 июня 2013, «CP Дистрибуция»
Дата выхода Blu-Ray: 20 июня 2013, «CP Дистрибуция»
Продолжительность: 01:49:28
Перевод: Профессиональный (дублированный) [Лицензия]
Cубтитры: русские, английские, чешские, эстонские, латвийские, литовские, португальские
Оригинальная аудиодорожка: английский-Режиссер: Брайан Сингер / Брайан Сингер-В ролях: Николас Холт, Элинор Томлинсон, Юэн МакГрегор, Стэнли Туччи, Иэн МакШейн, Билл Найи, Джон Кассир, Бен Дэниелс, Юэн Бремнер, Эдди Марсан-Описание: История начинается с похищения принцессы, что грозит нарушить хрупкий мир между людьми и великанами. Юный фермер возглавляет вылазку в царство гигантов в надежде спасти девушку.-Бонусы: Удаленные сцены, Подборка смешных моментов- -Качество: DVD9 R5
Формат: DVD-Video
Видео кодек: MPEG2
Аудио кодек: AC3
Видео: PAL 16:9 (720x576(0.569)) MPEG Video, 25,000 кадр/сек, 5901 Кбит/сек
Аудио #1: English (Dolby AC3, 6 ch) 384 Кбит/сек, 48,0 КГц
Аудио #2: Czech(Ceske) (Dolby AC3, 6 ch) 384 Кбит/сек, 48,0 КГц
Аудио #3: Russian (Dolby AC3, 6 ch) 384 Кбит/сек, 48,0 КГц
Аудио #4: Ukrainian (Dolby AC3, 6 ch) 384 Кбит/сек, 48,0 КГц
Аудио #5: English (Dolby AC3, 2 ch) 192 Кбит/сек, 48,0 КГц [Доп. материалы]--

DVDInfo
Title: Dzhek.pokoritel.velikanov.2013.O.DVD9
Size: 5.89 Gb ( 6 181 098,00 KBytes ) - DVD-9
Enabled regions: 1, 2, 3, 4, 5, 6, 7, 8
VTS_01 :
Play Length: 01:49:28+00:00:00+00:08:06+00:03:01
Video: PAL 16:9 (720x576) VBR, Auto Letterboxed
Audio:
English (Dolby AC3, 6 ch)
Czech(Ceske) (Dolby AC3, 6 ch)
Russian (Dolby AC3, 6 ch)
Ukrainian (Dolby AC3, 6 ch)
English (Dolby AC3, 2 ch)
Subtitles:
English
Czech(Ceske)
Estonian
Latvian
Lithuanian
Portugues
Russian
Czech(Ceske)
Russian
VTS_02 :
Play Length: 00:00:10
Video: PAL 16:9 (720x576) VBR, Auto Letterboxed
Audio:
Not specified (Dolby AC3, 6 ch)
Subtitles:
Not specified
* Menus Information *
VIDEO_TS Menu
Video:
PAL 16:9 (720x576) VBR
Auto Pan&Scan
Audio:
Not specified (Dolby AC3, 1 ch)
Language Unit :
Title Menu
VTS_01 Menu
Video:
PAL 16:9 (720x576) VBR
Auto Pan&Scan
Audio:
Not specified (Dolby AC3, 2 ch)
English Language Unit :
Root Menu
VTS_02 Menu
Video:
PAL 4:3 (720x576) VBR
Auto Pan&Scan, Auto Letterboxed
Audio:
Not specified (Dolby AC3, 1 ch)
Language Unit :
Root Menu
MediaInfo
Общее
Полное имя : M:\Новинки 2013\Dzhek.pokoritel.velikanov.2013.O.DVD9\VIDEO_TS\VTS_01_2.VOB
Формат : MPEG-PS
Размер файла : 1024 Мбайт
Продолжительность : 18 м.
Режим общего битрейта : Переменный
Общий поток : 7588 Кбит/сек
Видео
Идентификатор : 224 (0xE0)
Формат : MPEG Video
Версия формата : Version 2
Профиль формата : Main@Main
Параметр BVOP формата : Да
Параметр матрицы формата : Выборочная
Параметр GOP формата : Variable
Продолжительность : 18 м.
Вид битрейта : Переменный
Битрейт : 5901 Кбит/сек
Максимальный битрейт : 7500 Кбит/сек
Ширина : 720 пикселей
Высота : 576 пикселей
Соотношение сторон : 16:9
Частота кадров : 25,000 кадров/сек
Стандарт вещания : PAL
Цветовое пространство : YUV
Субдискретизация насыщенности : 4:2:0
Битовая глубина : 8 бит
Тип развёртки : Чересстрочная
Порядок развёртки : Верхнее поле первое
Метод сжатия : С потерями
Бит/(Пиксели*Кадры) : 0.569
TimeCode_FirstFrame : 01:20:02:00
TimeCode_Source : Group of pictures header
Размер потока : 796 Мбайт (78%)
Аудио #1
Идентификатор : 189 (0xBD)-128 (0x80)
Формат : AC-3
Формат/Информация : Audio Coding 3
Расширение режима : CM (complete main)
Параметр Endianness формата : Big
Режим смешивания : DVD-Video
Продолжительность : 18 м.
Вид битрейта : Постоянный
Битрейт : 384 Кбит/сек
Каналы : 6 каналов
Расположение каналов : Front: L C R, Side: L R, LFE
Частота : 48,0 КГц
Битовая глубина : 16 бит
Метод сжатия : С потерями
Задержка видео : -256 мс.
Размер потока : 51,8 Мбайт (5%)
Аудио #2
Идентификатор : 189 (0xBD)-129 (0x81)
Формат : AC-3
Формат/Информация : Audio Coding 3
Расширение режима : CM (complete main)
Параметр Endianness формата : Big
Режим смешивания : DVD-Video
Продолжительность : 18 м.
Вид битрейта : Постоянный
Битрейт : 384 Кбит/сек
Каналы : 6 каналов
Расположение каналов : Front: L C R, Side: L R, LFE
Частота : 48,0 КГц
Битовая глубина : 16 бит
Метод сжатия : С потерями
Задержка видео : -256 мс.
Размер потока : 51,8 Мбайт (5%)
Аудио #3
Идентификатор : 189 (0xBD)-130 (0x82)
Формат : AC-3
Формат/Информация : Audio Coding 3
Расширение режима : CM (complete main)
Параметр Endianness формата : Big
Режим смешивания : DVD-Video
Продолжительность : 18 м.
Вид битрейта : Постоянный
Битрейт : 384 Кбит/сек
Каналы : 6 каналов
Расположение каналов : Front: L C R, Side: L R, LFE
Частота : 48,0 КГц
Битовая глубина : 16 бит
Метод сжатия : С потерями
Задержка видео : -256 мс.
Размер потока : 51,8 Мбайт (5%)
Аудио #4
Идентификатор : 189 (0xBD)-131 (0x83)
Формат : AC-3
Формат/Информация : Audio Coding 3
Расширение режима : CM (complete main)
Параметр Endianness формата : Big
Режим смешивания : DVD-Video
Продолжительность : 18 м.
Вид битрейта : Постоянный
Битрейт : 384 Кбит/сек
Каналы : 6 каналов
Расположение каналов : Front: L C R, Side: L R, LFE
Частота : 48,0 КГц
Битовая глубина : 16 бит
Метод сжатия : С потерями
Задержка видео : -256 мс.
Размер потока : 51,8 Мбайт (5%)
Текст #1
Идентификатор : 189 (0xBD)-32 (0x20)
Формат : RLE
Формат/Информация : Run-length encoding
Режим смешивания : DVD-Video
Продолжительность : 18 м.
Задержка видео : -160 мс.
Текст #2
Идентификатор : 189 (0xBD)-33 (0x21)
Формат : RLE
Формат/Информация : Run-length encoding
Режим смешивания : DVD-Video
Задержка видео : -160 мс.
Текст #3
Идентификатор : 189 (0xBD)-34 (0x22)
Формат : RLE
Формат/Информация : Run-length encoding
Режим смешивания : DVD-Video
Задержка видео : -160 мс.
Текст #4
Идентификатор : 189 (0xBD)-35 (0x23)
Формат : RLE
Формат/Информация : Run-length encoding
Режим смешивания : DVD-Video
Задержка видео : -160 мс.
Текст #5
Идентификатор : 189 (0xBD)-36 (0x24)
Формат : RLE
Формат/Информация : Run-length encoding
Режим смешивания : DVD-Video
Задержка видео : -160 мс.
Текст #6
Идентификатор : 189 (0xBD)-37 (0x25)
Формат : RLE
Формат/Информация : Run-length encoding
Режим смешивания : DVD-Video
Задержка видео : -160 мс.
Текст #7
Идентификатор : 189 (0xBD)-38 (0x26)
Формат : RLE
Формат/Информация : Run-length encoding
Режим смешивания : DVD-Video
Задержка видео : -160 мс.
Скриншоты менюСкриншоты фильмаСкриншоты доп. материалов
-
-Раздача от группы:

_________________
Показать сообщения:    

Текущее время: Сегодня 02:58

Часовой пояс: GMT



Вы не можете начинать темы
Вы не можете отвечать на сообщения
Вы не можете редактировать свои сообщения
Вы не можете удалять свои сообщения
Вы не можете голосовать в опросах
Вы не можете прикреплять файлы к сообщениям
Вы не можете скачивать файлы