Важное объявление!
У Нас Все раздачи мультитрекерные, при нуле пиров в релизах, можете смело вставать на закачку!
 
Автор Сообщение

HUNTER

Стаж:
4 года 4 месяца
Сообщений:
56839

Репутация: 101

[+] [-]
Вне форума [Профиль] [ЛС]

Джейсон Х
Jason X
-
-
-
Год выпуска: 2001
Страна: США
Жанр: Ужасы, фантастика
Продолжительность: 01:31:31-
-
-Перевод 1: Профессиональный (многоголосый закадровый) НТВ +
Перевод 2: Профессиональный (двухголосый закадровый) R5
Перевод 3: Авторский (одноголосый закадровый) Е. Рудой
Перевод 4: Любительский (одноголосый закадровый) И.Сафронов aka *Jonathan*
Перевод 5: Профессиональный (двухголосый закадровый)
Перевод 6: Профессиональный (двухголосый закадровый)
Перевод 7: Профессиональный (двухголосый закадровый)
Оригинальная аудиодорожка: Английский
Субтитры: Русские, английские
Режиссер: Джеймс Исаак / James Isaac
В ролях: Кейн Ходдер, Лекса Дойг, Лиза Райдер, Чак Кемпбелл, Джонатан Поттс, Питер Мэнса-
-
-Описание: Если вам не хватает ужаса - значит, вы нашли то, надо. В далеком 2455 году человечество прекратило свое существование на Земле. Небольшие колонии представителей человеческой расы колесят по бескрайним космическим просторам. Одна из экспедиций находит на опустевшей Земле два замороженных с помощью криогенна трупа, один из которых оказывается, кем бы вы думали?.. Джейсоном Вурхисом, убившим более 200 людей в предыдущих фильмах знаменитой киноэпопеи "Пятница 13-ое". И теперь легендарный маньяк Хрустального Озера осваивает новое пространство, пополняя свой кровавый список новыми жертвами. "Джейсон Х" - напряженный фильм ужасов, наполненный зрелищными спецэффектами, супероружием и новыми изощренными способами убийства.
Обрадованная своей находкой команда забирает тела с собой. Одно их тел принадлежит серийному убийце Джейсону Вурхису. Студенты не подозревают, с какой смертельной опасностью им предстоит столкнуться, хотя дальнейшее развитие событий не трудно предугадать. Джейсон самостоятельно реанимируется прямо на корабле и, быстро расправившись с небольшим отрядом спецназа, начинает охоту на студентов…- -Качество: BDRip 1080p
Формат: MKV
Видео кодек: H264
Аудио кодек: AC3
Видео: MPEG4 Video (H264), 1920x1080, 23.976 fps, 14.0 Mbps
Аудио #1: Русский, Dolby AC3, 48000 Hz, 2ch, 192 kbps - Многоголосый (НТВ +)
Аудио #2: Русский, Dolby AC3, 48000 Hz, 6ch, 448 kbps - Двухгоголосый (R5)
Аудио #3: Русский, Dolby AC3, 48000 Hz, 6ch, 448 kbps - Одноголосый (Е. Рудой)
Аудио #4: Русский, Dolby AC3, 48000 Hz, 2ch, 192 kbps - Двухгоголосый
Аудио #5: Русский, Dolby AC3, 48000 Hz, 2ch, 192 kbps - Двухгоголосый
Аудио #6: Русский, Dolby AC3, 48000 Hz, 1ch, 192 kbps - Двухгоголосый
Аудио #7: Русский, Dolby AC3, 48000 Hz, 2ch, 192 kbps - Одноголосый (И.Сафронов aka *Jonathan*)
Аудио #8: Украинский, Dolby AC3, 48000 Hz, 2ch, 192 kbps - Многоголосый
Аудио #9: Английский, Dolby AC3, 48000 Hz, 6ch, 448 kbps
Субтитры: Softsub (SRT)
-Сэмпл-

MediaInfo:

General
Unique ID : 231309335289278709453036344263344786337 (0xAE048EB9F53B394AA148BEAD7D5E0BA1)
Complete name : F:DVDRip2001 Джейсон Х.mkv
Format : Matroska
Format version : Version 4 / Version 2
File size : 10.6 GiB
Duration : 1h 31mn
Overall bit rate : 16.5 Mbps
Encoded date : UTC 2014-12-18 03:26:15
Writing application : mkvmerge v7.1.0 ('Good Love') 32bit built on Jul 27 2014 12:59:18
Writing library : libebml v1.3.0 + libmatroska v1.4.1
DURATION : 01:31:22.102000000
NUMBER_OF_FRAMES : 870
NUMBER_OF_BYTES : 29328
_STATISTICS_WRITING_APP : mkvmerge v7.1.0 ('Good Love') 32bit built on Jul 27 2014 12:59:18
_STATISTICS_WRITING_DATE_UTC : 2014-12-18 03:26:15
_STATISTICS_TAGS : BPS DURATION NUMBER_OF_FRAMES NUMBER_OF_BYTES
Video
ID : 1
Format : AVC
Format/Info : Advanced Video Codec
Format profile : High@L4.1
Format settings, CABAC : Yes
Format settings, ReFrames : 4 frames
Codec ID : V_MPEG4/ISO/AVC
Duration : 1h 31mn
Bit rate : 14.0 Mbps
Width : 1 920 pixels
Height : 1 080 pixels
Display aspect ratio : 16:9
Frame rate mode : Constant
Frame rate : 23.976 fps
Color space : YUV
Chroma subsampling : 4:2:0
Bit depth : 8 bits
Scan type : Progressive
Bits/(Pixel*Frame) : 0.282
Stream size : 8.76 GiB (83%)
Title : Джейсон Х 2001 / renta23
Writing library : x264 core 125 r2208 d9d2288
Encoding settings : cabac=1 / ref=5 / deblock=1:-1:-1 / analyse=0x3:0x133 / me=umh / subme=11 / psy=1 / psy_rd=1.20:0.25 / mixed_ref=1 / me_range=32 / chroma_me=1 / trellis=2 / 8x8dct=1 / cqm=0 / deadzone=21,11 / fast_pskip=0 / chroma_qp_offset=-4 / threads=12 / lookahead_threads=2 / sliced_threads=0 / nr=0 / decimate=1 / interlaced=0 / bluray_compat=0 / constrained_intra=0 / bframes=12 / b_pyramid=1 / b_adapt=2 / b_bias=0 / direct=3 / weightb=1 / open_gop=0 / weightp=2 / keyint=250 / keyint_min=23 / scenecut=40 / intra_refresh=0 / rc_lookahead=50 / rc=2pass / mbtree=1 / bitrate=14000 / ratetol=1.0 / qcomp=0.60 / qpmin=0 / qpmax=69 / qpstep=4 / cplxblur=20.0 / qblur=0.5 / ip_ratio=1.40 / aq=1:1.00
Language : English
Default : Yes
Forced : No
Audio #1
ID : 2
Format : AC-3
Format/Info : Audio Coding 3
Mode extension : CM (complete main)
Format settings, Endianness : Big
Codec ID : A_AC3
Duration : 1h 31mn
Bit rate mode : Constant
Bit rate : 192 Kbps
Channel(s) : 2 channels
Channel positions : Front: L R
Sampling rate : 48.0 KHz
Bit depth : 16 bits
Compression mode : Lossy
Stream size : 126 MiB (1%)
Title : Многоголосый (НТВ+)
Language : Russian
Default : Yes
Forced : No
Audio #2
ID : 3
Format : AC-3
Format/Info : Audio Coding 3
Mode extension : CM (complete main)
Format settings, Endianness : Big
Codec ID : A_AC3
Duration : 1h 31mn
Bit rate mode : Constant
Bit rate : 448 Kbps
Channel(s) : 6 channels
Channel positions : Front: L C R, Side: L R, LFE
Sampling rate : 48.0 KHz
Bit depth : 16 bits
Compression mode : Lossy
Stream size : 294 MiB (3%)
Title : Двухгоголосый (R5 (Владимир Вихров + женский голос))
Language : Russian
Default : No
Forced : No
Audio #3
ID : 4
Format : AC-3
Format/Info : Audio Coding 3
Mode extension : CM (complete main)
Format settings, Endianness : Big
Codec ID : A_AC3
Duration : 1h 31mn
Bit rate mode : Constant
Bit rate : 448 Kbps
Channel(s) : 6 channels
Channel positions : Front: L C R, Side: L R, LFE
Sampling rate : 48.0 KHz
Bit depth : 16 bits
Compression mode : Lossy
Stream size : 294 MiB (3%)
Title : Одноголосый (Е. Рудой)
Language : Russian
Default : No
Forced : No
Audio #4
ID : 5
Format : AC-3
Format/Info : Audio Coding 3
Mode extension : CM (complete main)
Format settings, Endianness : Big
Codec ID : A_AC3
Duration : 1h 31mn
Bit rate mode : Constant
Bit rate : 192 Kbps
Channel(s) : 2 channels
Channel positions : Front: L R
Sampling rate : 48.0 KHz
Bit depth : 16 bits
Compression mode : Lossy
Stream size : 126 MiB (1%)
Title : Двухгоголосый
Language : Russian
Default : No
Forced : No
Audio #5
ID : 6
Format : AC-3
Format/Info : Audio Coding 3
Mode extension : CM (complete main)
Format settings, Endianness : Big
Codec ID : A_AC3
Duration : 1h 31mn
Bit rate mode : Constant
Bit rate : 192 Kbps
Channel(s) : 2 channels
Channel positions : Front: L R
Sampling rate : 48.0 KHz
Bit depth : 16 bits
Compression mode : Lossy
Stream size : 126 MiB (1%)
Title : Двухгоголосый
Language : Russian
Default : No
Forced : No
Audio #6
ID : 7
Format : AC-3
Format/Info : Audio Coding 3
Mode extension : CM (complete main)
Format settings, Endianness : Big
Codec ID : A_AC3
Duration : 1h 31mn
Bit rate mode : Constant
Bit rate : 192 Kbps
Channel(s) : 1 channel
Channel positions : Front: C
Sampling rate : 48.0 KHz
Bit depth : 16 bits
Compression mode : Lossy
Stream size : 126 MiB (1%)
Title : Двухгоголосый
Language : Russian
Default : No
Forced : No
Audio #7
ID : 8
Format : AC-3
Format/Info : Audio Coding 3
Mode extension : CM (complete main)
Format settings, Endianness : Big
Codec ID : A_AC3
Duration : 1h 31mn
Bit rate mode : Constant
Bit rate : 192 Kbps
Channel(s) : 2 channels
Channel positions : Front: L R
Sampling rate : 48.0 KHz
Bit depth : 16 bits
Compression mode : Lossy
Stream size : 126 MiB (1%)
Title : Одноголосый (И. Сафронов aka *Jonathan*)
Language : Russian
Default : No
Forced : No
Audio #8
ID : 9
Format : AC-3
Format/Info : Audio Coding 3
Mode extension : CM (complete main)
Format settings, Endianness : Big
Codec ID : A_AC3
Duration : 1h 31mn
Bit rate mode : Constant
Bit rate : 192 Kbps
Channel(s) : 2 channels
Channel positions : Front: L R
Sampling rate : 48.0 KHz
Bit depth : 16 bits
Compression mode : Lossy
Stream size : 126 MiB (1%)
Language : Ukrainian
Default : No
Forced : No
Audio #9
ID : 10
Format : AC-3
Format/Info : Audio Coding 3
Mode extension : CM (complete main)
Format settings, Endianness : Big
Codec ID : A_AC3
Duration : 1h 31mn
Bit rate mode : Constant
Bit rate : 448 Kbps
Channel(s) : 6 channels
Channel positions : Front: L C R, Side: L R, LFE
Sampling rate : 48.0 KHz
Bit depth : 16 bits
Compression mode : Lossy
Stream size : 294 MiB (3%)
Language : English
Default : No
Forced : No
Text #1
ID : 11
Format : UTF-8
Codec ID : S_TEXT/UTF8
Codec ID/Info : UTF-8 Plain Text
Language : Russian
Default : No
Forced : No
Text #2
ID : 12
Format : UTF-8
Codec ID : S_TEXT/UTF8
Codec ID/Info : UTF-8 Plain Text
Language : English
Default : No
Forced : No
Menu
00:00:00.000 : en:Chapter 01
00:03:04.809 : en:Chapter 02
00:07:10.513 : en:Chapter 03
00:09:38.536 : en:Chapter 04
00:14:00.756 : en:Chapter 05
00:17:34.178 : en:Chapter 06
00:23:24.403 : en:Chapter 07
00:25:58.765 : en:Chapter 08
00:29:56.085 : en:Chapter 09
00:31:10.827 : en:Chapter 10
00:34:49.170 : en:Chapter 11
00:38:52.872 : en:Chapter 12
00:41:17.558 : en:Chapter 13
00:49:58.620 : en:Chapter 14
00:54:05.784 : en:Chapter 15
00:58:49.943 : en:Chapter 16
01:03:11.954 : en:Chapter 17
01:04:47.884 : en:Chapter 18
01:08:50.626 : en:Chapter 19
01:11:56.645 : en:Chapter 20
01:15:13.175 : en:Chapter 21
01:18:27.703 : en:Chapter 22
01:21:03.942 : en:Chapter 23
01:23:46.229 : en:Chapter 24
01:26:24.470 : en:Chapter 25
01:27:27.033 : en:Chapter 26

Скриншоты:

-

_________________
Показать сообщения:    

Текущее время: Сегодня 06:49

Часовой пояс: GMT



Вы не можете начинать темы
Вы не можете отвечать на сообщения
Вы не можете редактировать свои сообщения
Вы не можете удалять свои сообщения
Вы не можете голосовать в опросах
Вы не можете прикреплять файлы к сообщениям
Вы не можете скачивать файлы