Важное объявление!
У Нас Все раздачи мультитрекерные, при нуле пиров в релизах, можете смело вставать на закачку!
 
Автор Сообщение

HUNTER

Стаж:
4 года 4 месяца
Сообщений:
56733

Репутация: 101

[+] [-]
Вне форума [Профиль] [ЛС]

Джейми Оливер: Готовим вкусно и недорого / Save with Jamie's / Jamie's Money Saving Meals
Страна: Соединённое Королевство Великобритании и Северной Ирландии
Тематика: Кулинарное шоу
Тип раздаваемого материала: Видеоурок
Продолжительность: 00:47:01
Год выпуска: 2013
Язык: Русский + Английский
Перевод: Профессиональный (многоголосый, закадровый)
Язык субтитров: нет
Описание: Джейми Оливер продолжает свою просветительскую деятельность, цель которой - приучить людей питаться вкусно и полезно, при этом не тратя на еду много денег. Харизматичный повар научит зрителей делать правильный выбор в магазине, а также рационально распоряжаться своим временем и бюджетом.
Доп. информация:

Чистая запись с канала FoxLife без перекодирования.

MediaInfo

Код:
General
ID                                       : 16 (0x10)
Complete name                            : E:\Save with Jamie\Save.With.Jamie.S01.E01.DVB.ts
Format                                   : MPEG-TS
File size                                : 986 MiB
Duration                                 : 47mn 1s
Overall bit rate mode                    : Variable
Overall bit rate                         : 2 932 Kbps
Video
ID                                       : 41 (0x29)
Menu ID                                  : 3 (0x3)
Format                                   : MPEG Video
Format version                           : Version 2
Format profile                           : Main@Main
Format settings, BVOP                    : Yes
Format settings, Matrix                  : Custom
Format settings, GOP                     : Variable
Codec ID                                 : 2
Duration                                 : 47mn 1s
Bit rate mode                            : Variable
Bit rate                                 : 2 400 Kbps
Maximum bit rate                         : 5 000 Kbps
Width                                    : 720 pixels
Height                                   : 576 pixels
Display aspect ratio                     : 16:9
Frame rate                               : 25.000 fps
Standard                                 : PAL
Color space                              : YUV
Chroma subsampling                       : 4:2:0
Bit depth                                : 8 bits
Scan type                                : Interlaced
Scan order                               : Top Field First
Compression mode                         : Lossy
Bits/(Pixel*Frame)                       : 0.231
Time code of first frame                 : 00:00:00:00
Time code source                         : Group of pictures header
Stream size                              : 807 MiB (82%)
Audio #1
ID                                       : 44 (0x2C)
Menu ID                                  : 3 (0x3)
Format                                   : MPEG Audio
Format version                           : Version 1
Format profile                           : Layer 2
Codec ID                                 : 3
Duration                                 : 47mn 1s
Bit rate mode                            : Constant
Bit rate                                 : 192 Kbps
Channel count                            : 2 channels
Sampling rate                            : 48.0 KHz
Compression mode                         : Lossy
Stream size                              : 64.6 MiB (7%)
Audio #2
ID                                       : 45 (0x2D)
Menu ID                                  : 3 (0x3)
Format                                   : MPEG Audio
Format version                           : Version 1
Format profile                           : Layer 2
Codec ID                                 : 3
Duration                                 : 47mn 1s
Bit rate mode                            : Constant
Bit rate                                 : 192 Kbps
Channel count                            : 2 channels
Sampling rate                            : 48.0 KHz
Compression mode                         : Lossy
Stream size                              : 64.6 MiB (7%)
Качество: DVB
Формат: TS
Видео кодек: MPEG2
Аудио кодек: MP2
Видео: MPEG2 Video 720x576 (16:9) 25fps 2 400 Kbps
Аудио: MPEG Audio 48000Hz stereo 192kbps [RU]
Аудио 2: MPEG Audio 48000Hz stereo 192kbps [ENG]

Скриншоты.Yandex


Скриншоты.Fastpic



_________________
Показать сообщения:    

Текущее время: Сегодня 00:23

Часовой пояс: GMT



Вы не можете начинать темы
Вы не можете отвечать на сообщения
Вы не можете редактировать свои сообщения
Вы не можете удалять свои сообщения
Вы не можете голосовать в опросах
Вы не можете прикреплять файлы к сообщениям
Вы не можете скачивать файлы