Важное объявление!
У Нас Все раздачи мультитрекерные, при нуле пиров в релизах, можете смело вставать на закачку!
 
Автор Сообщение

HUNTER

Стаж:
4 года 4 месяца
Сообщений:
56790

Репутация: 101

[+] [-]
Вне форума [Профиль] [ЛС]

| Все релизы мультфильма || BDRip 1080p, 8.63 GB |-A N T O N I O
B A N D E R A S
P R E S E N T SДжастин и рыцари доблести / Justin and the Knights of Valour / Justin y la Espada del Valor-
Страна: Испания
Жанр: мультфильм, приключения, семейный
Продолжительность: 01:36:20
Год выпуска: 2013
Перевод: Профессиональный (полное дублирование)
Субтитры: есть-Режиссёр: Мануэль Сисилия / Manuel Sicilia
Роли озвучивали: Фредди Хаймор, Сирша Ронан, Марк Стронг, Дэвид Уоллиамс, Антонио Бандерас, Альфред Молина, Джули Уолтерс, Оливия Уильямс, Чарльз Дэнс, Руперт Эверетт, Джеймс Космо, Майкл Калкин, Тэмсин Эгертон, Стивен Хьюз, Бэрри Хамфриз, Ллойд Хатчинсон...
Роли дублировали: Николай Быстров, Лина Иванова, Владимир Антоник, Константин Карасик, Алексей Чумаков, Ольга Зубкова, Андрей Ярославцев, Владимир Левашёв, Татьяна Шитова, Александр Пожаров, Иван Жарков, Михаил Тихонов и др.- | | -Описание: Действие мультфильма разворачивается в магическом мире, о котором мечтает каждый ребёнок. Джастин мечтает стать рыцарем, но на его пути появляется много препятствий бюрократического характера. Даже отец Джастина против рыцарства и хочет, чтобы сын стал придворным служащим. Тогда мальчик, обуреваемый желанием стать настоящим доблестным Рыцарем, сбегает из дома в поисках приключений. По дороге он знакомится с прекрасной девушкой - Талией, вдохновляющей его на новые подвиги, и встречает мудрых рыцарей-наставников, которые обучают его рыцарскому мастерству. Но хватит ли Джастину полученных знаний для того, чтобы справиться с угрозой, которая нависла над его Королевством? Сумеет ли мальчик преодолеть все препятствия и достичь своей мечты?...-Доп. информация: BDRip 1080p сделан с Blu-Ray диска Justin y la Espada del Valor 2D+3D SPA Blu-ray 1080p AVC DTS HD MA 5.1-CHDbits (SPA Transfer).
Отдельное спасибо следующим людям:
- xfiles за предоставление украинской звуковой дорожки.
- Страник 2.0 за изготовление русских субтитров к этому мультфильму.
-Сэмпл/Sample (63.5 MB, 1 минута)-Качество: BDRip 1080p
Формат: MKV
Видео: 1920x804 (2.39:1), 23,976 fps, ~7658 kbps avg, 0.207 bit/pixel
Аудио #1: Русский, DTS / 5.1 / 48 kHz / 1509 kbps / 16bit - Дубляж | BD RUS
Аудио #2: Украинский, AC3, 6 ch, 48 kHz, 448 kbps - Дубляж
Аудио #3: English, DTS / 5.1 / 48 kHz / 1509 kbps / 16bit - Dubbing
Аудио #4: Spanish, DTS / 5.1 / 48 kHz / 1509 kbps / 16bit - Original
Аудио #5: Spanish, AC3, 2 ch, 48 kHz, 192 kbps - Descriptive
Субтитры: Русские (полные by Страник 2.0), English (Full), Spanish (Full, SDH)
Навигация по главам: есть (12 не именованных глав)
Скриншоты сравнения Трансферов RUS<->GER<->SPA
...BD RUS.................................................BD GER.................................................BD SPA...

MediaInfo / x264Log
x264Log
raw [info]: 1920x804p 1:1 @ 24000/1001 fps (cfr)x264 [info]: using SAR=1/1x264 [info]: using cpu capabilities: MMX2 SSE2Fast SSSE3 SSE4.2 AVX XOP FMA4 FMA3 LZCNT BMI1x264 [info]: profile High, level 4.1x264 [info]: frame I:1444 Avg QP:12.74 size:240086 PSNR Mean Y:50.39 U:53.01 V:53.07 Avg:51.09 Global:50.57x264 [info]: frame P:33370 Avg QP:14.85 size: 81953 PSNR Mean Y:48.27 U:50.90 V:50.96 Avg:48.97 Global:48.40x264 [info]: frame B:103772 Avg QP:17.36 size: 23627 PSNR Mean Y:47.52 U:50.56 V:50.56 Avg:48.29 Global:47.65x264 [info]: consecutive B-frames: 3.7% 3.9% 16.7% 12.8% 9.6% 51.4% 0.8% 0.1% 0.2% 0.1% 0.3% 0.3%x264 [info]: mb I I16..4: 5.8% 56.5% 37.7%x264 [info]: mb P I16..4: 1.8% 18.6% 6.5% P16..4: 24.3% 25.9% 11.5% 2.7% 0.3% skip: 8.5%x264 [info]: mb B I16..4: 0.4% 2.8% 0.9% B16..8: 28.8% 20.7% 3.1% direct: 5.3% skip:37.9% L0:40.5% L1:43.5% BI:16.0%x264 [info]: 8x8 transform intra:67.7% inter:47.4%x264 [info]: coded y,uvDC,uvAC intra: 82.0% 86.6% 70.4% inter: 21.1% 19.2% 5.3%x264 [info]: i16 v,h,dc,p: 28% 17% 8% 46%x264 [info]: i8 v,h,dc,ddl,ddr,vr,hd,vl,hu: 16% 15% 14% 7% 9% 9% 9% 10% 11%x264 [info]: i4 v,h,dc,ddl,ddr,vr,hd,vl,hu: 38% 14% 15% 4% 7% 7% 6% 5% 5%x264 [info]: i8c dc,h,v,p: 36% 27% 22% 15%x264 [info]: Weighted P-Frames: Y:3.0% UV:2.2%x264 [info]: ref P L0: 65.4% 12.0% 14.9% 6.7% 1.1% 0.0%x264 [info]: ref B L0: 90.6% 7.7% 1.7%x264 [info]: ref B L1: 94.6% 5.4%x264 [info]: SSIM Mean Y:0.9901251 (20.055db)x264 [info]: PSNR Mean Y:47.727 U:50.667 V:50.686 Avg:48.479 Global:47.840 kb/s:7658.30encoded 138586 frames, 5.68 fps, 7658.30 kb/s
GeneralUnique ID : 172873382920946578681248600103998716676 (0x820E33D56F26B41D9BBB09875A3BFB04)Complete name : Justin.and.the.Knights.of.Valour.2013.Spa.Video.BDRip.1080p.dfcbit.mkvFormat : MatroskaFormat version : Version 2File size : 8.63 GiBDuration : 1h 36mnOverall bit rate : 12.8 MbpsEncoded date : UTC 2014-06-07 16:29:23Writing application : mkvmerge v4.0.0 ('The Stars were mine') built on Jun 6 2010 16:18:42Writing library : libebml v1.0.0 + libmatroska v1.0.0
VideoID : 1Format : AVCFormat/Info : Advanced Video CodecFormat profile : High@L4.1Format settings, CABAC : YesFormat settings, ReFrames : 4 framesCodec ID : V_MPEG4/ISO/AVCDuration : 1h 36mnBit rate : 7 658 KbpsWidth : 1 920 pixelsHeight : 804 pixelsDisplay aspect ratio : 2.39:1Frame rate mode : ConstantFrame rate : 23.976 fpsColor space : YUVChroma subsampling : 4:2:0Bit depth : 8 bitsScan type : ProgressiveBits/(Pixel*Frame) : 0.207Stream size : 5.15 GiB (58%)Title : NTSC, 1920x804 (2.39:1), BDRip 1080p - tRuAVC & Multfilmy [DFCbit]Writing library : x264 core 142 r2431kMod ac76440Encoding settings : cabac=1 / ref=4 / deblock=1:-2:-1 / analyse=0x3:0x133 / me=umh / subme=11 / psy=1 / fade_compensate=0.00 / psy_rd=0.63:0.00 / mixed_ref=1 / me_range=32 / chroma_me=1 / trellis=2 / 8x8dct=1 / cqm=0 / deadzone=21,11 / fast_pskip=0 / chroma_qp_offset=-2 / threads=12 / lookahead_threads=3 / sliced_threads=0 / nr=0 / decimate=1 / interlaced=0 / bluray_compat=0 / constrained_intra=0 / fgo=0 / bframes=11 / b_pyramid=2 / b_adapt=2 / b_bias=0 / direct=1 / weightb=1 / open_gop=0 / weightp=2 / keyint=250 / keyint_min=23 / scenecut=40 / intra_refresh=0 / rc_lookahead=70 / rc=2pass / mbtree=0 / bitrate=7658 / ratetol=1.0 / qcomp=0.81 / qpmin=0 / qpmax=69 / qpstep=4 / cplxblur=20.0 / qblur=0.5 / vbv_maxrate=50000 / vbv_bufsize=62500 / nal_hrd=none / filler=0 / ip_ratio=1.40 / pb_ratio=1.30 / aq=3:0.90Language : SpanishDefault : YesForced : NoColor primaries : BT.709Transfer characteristics : BT.709Matrix coefficients : BT.709
Audio #1ID : 2Format : DTSFormat/Info : Digital Theater SystemsMode : 16Format settings, Endianness : BigCodec ID : A_DTSDuration : 1h 36mnBit rate mode : ConstantBit rate : 1 509 KbpsChannel(s) : 6 channelsChannel positions : Front: L C R, Side: L R, LFESampling rate : 48.0 KHzBit depth : 16 bitsCompression mode : LossyStream size : 1.02 GiB (12%)Title : DTS / 5.1 / 48 kHz / 1509 kbps / 16bit - Дубляж | BD RUSLanguage : RussianDefault : YesForced : No
Audio #2ID : 3Format : AC-3Format/Info : Audio Coding 3Mode extension : CM (complete main)Format settings, Endianness : BigCodec ID : A_AC3Duration : 1h 36mnBit rate mode : ConstantBit rate : 448 KbpsChannel(s) : 6 channelsChannel positions : Front: L C R, Side: L R, LFESampling rate : 48.0 KHzBit depth : 16 bitsCompression mode : LossyStream size : 309 MiB (3%)Title : AC3, 6 ch, 48 kHz, 448 kbps - ДубляжLanguage : UkrainianDefault : NoForced : No
Audio #3ID : 4Format : DTSFormat/Info : Digital Theater SystemsMode : 16Format settings, Endianness : BigCodec ID : A_DTSDuration : 1h 36mnBit rate mode : ConstantBit rate : 1 509 KbpsChannel(s) : 6 channelsChannel positions : Front: L C R, Side: L R, LFESampling rate : 48.0 KHzBit depth : 16 bitsCompression mode : LossyStream size : 1.02 GiB (12%)Title : DTS / 5.1 / 48 kHz / 1509 kbps / 16bit - DubbingLanguage : EnglishDefault : NoForced : No
Audio #4ID : 5Format : DTSFormat/Info : Digital Theater SystemsMode : 16Format settings, Endianness : BigCodec ID : A_DTSDuration : 1h 36mnBit rate mode : ConstantBit rate : 1 509 KbpsChannel(s) : 6 channelsChannel positions : Front: L C R, Side: L R, LFESampling rate : 48.0 KHzBit depth : 16 bitsCompression mode : LossyStream size : 1.02 GiB (12%)Title : DTS / 5.1 / 48 kHz / 1509 kbps / 16bit - OriginalLanguage : SpanishDefault : NoForced : No
Audio #5ID : 6Format : AC-3Format/Info : Audio Coding 3Mode extension : CM (complete main)Format settings, Endianness : BigCodec ID : A_AC3Duration : 1h 36mnBit rate mode : ConstantBit rate : 192 KbpsChannel(s) : 2 channelsChannel positions : Front: L RSampling rate : 48.0 KHzBit depth : 16 bitsCompression mode : LossyStream size : 132 MiB (1%)Title : AC3, 2 ch, 48 kHz, 192 kbps - DescriptiveLanguage : SpanishDefault : NoForced : No
Text #1ID : 7Format : UTF-8Codec ID : S_TEXT/UTF8Codec ID/Info : UTF-8 Plain TextTitle : SRT, Full by Страник 2.0Language : RussianDefault : NoForced : No
Text #2ID : 8Format : UTF-8Codec ID : S_TEXT/UTF8Codec ID/Info : UTF-8 Plain TextTitle : SRT, FullLanguage : EnglishDefault : NoForced : No
Text #3ID : 9Format : UTF-8Codec ID : S_TEXT/UTF8Codec ID/Info : UTF-8 Plain TextTitle : SRT, FullLanguage : SpanishDefault : NoForced : No
Text #4ID : 10Format : UTF-8Codec ID : S_TEXT/UTF8Codec ID/Info : UTF-8 Plain TextTitle : SRT, (SDH)Language : SpanishDefault : NoForced : No
Menu00:00:00.000 : en:Chapter 100:09:55.470 : en:Chapter 200:16:37.538 : en:Chapter 300:23:41.670 : en:Chapter 400:33:48.193 : en:Chapter 500:41:18.559 : en:Chapter 600:46:35.876 : en:Chapter 700:54:15.335 : en:Chapter 801:06:25.356 : en:Chapter 901:16:07.605 : en:Chapter 1001:24:04.373 : en:Chapter 1101:30:16.745 : en:Chapter 12
Скриншоты
Скриншот с названием мультфильма
--BDRip 1080p


Source Blu-Ray

Релиз от групп | and | -Данный релиз не будет воспроизводиться на бытовых плеерах не поддерживающих MKV и H.264FAQ по просмотру AVC
  • Смогу ли я запустить AVC фильм на своём компьютере?
  • Сэмпл из раздачи не воспроизводится или отсутствует звук/изображение. Что делать?
  • Что такое H.264/AVC и зачем он нужен?
  • Что за дурацкий формат .MKV?
  • Почему MKV? Чем AVI хуже?
  • Не могу переключить/включить/выключить аудио/видео дорожки и/или субтитры. Что делать?
  • Будут ли фильмы в таком формате проигрываться на бытовых плеерах без компьютера?
  • Проигрываю фильм, а картинка очень сильно отличается от скринов. Что не так?
  • Можно ли сконвертировать AVC в DVD?
  • Почему в характеристиках видеопотока указано два разрешения и что такое анаморфное разрешение?
    Обсуждение релизов в AVC формате || Свежие AVC рипы

  • _________________
    Показать сообщения:    

    Текущее время: Сегодня 09:04

    Часовой пояс: GMT



    Вы не можете начинать темы
    Вы не можете отвечать на сообщения
    Вы не можете редактировать свои сообщения
    Вы не можете удалять свои сообщения
    Вы не можете голосовать в опросах
    Вы не можете прикреплять файлы к сообщениям
    Вы не можете скачивать файлы