Важное объявление!
У Нас Все раздачи мультитрекерные, при нуле пиров в релизах, можете смело вставать на закачку!
 
Автор Сообщение

HUNTER

Стаж:
4 года 4 месяца
Сообщений:
56829

Репутация: 101

[+] [-]
Вне форума [Профиль] [ЛС]

Детсадовский полицейский / Kindergarten Cop
Страна: США
Студия: Imagine Entertainment & Universal Pictures
Жанр: боевик, триллер, комедия, криминал
Год выпуска: 1990
Продолжительность: 01:51:14
Перевод 1: Профессиональный (многоголосый, закадровый) |Universal|
Перевод 2: Профессиональный (многоголосый, закадровый) |Премьер Видео|
Перевод 3: Профессиональный (многоголосый, закадровый) |НТВ|
Перевод 4: Профессиональный (многоголосый, закадровый) |ТНТ|
Перевод 5: Одноголосый закадровый |неизвестный|
Перевод 6: Авторский (одноголосый закадровый) |Прямостанов|
Перевод 7: Профессиональный (многоголосый, закадровый)
Перевод 8: Авторский (одноголосый закадровый) |Михалёв, Алексей Михайлович|
Cубтитры: английские
Оригинальная аудиодорожка: английский
Режиссер: Айвэн Рейтмен / Ivan Reitman
В ролях: Арнольд Шварценеггер, Линда Хант, Памела Рид, Пенелопа Энн Миллер, Ричард Тайсон, Кэрролл Бэйкер, Кэти Мориарти, Джозеф Казинс, Кристиан Казинс
Описание: Детектив Джон Кимбл, ветеран грязных улиц Лос-Анджелеса, готов пойти на что угодно, лишь бы найти опасного преступника. Но для того чтобы заманить в ловушку хитрого преступника, ему приходится устроиться воспитателем в детский сад. И вот когда он завоевывает уважение малышей и любовь прекрасной учительницы, ему предстоит схватка с преступником.
слоган «Под прикрытием и в осаде»
все спасибо уходят этим людям
за работу над дорогами 7 & 8 спасибо Anoobis.
За исходник спасибо ChuckNorriss.


Сэмпл: https://yadi.sk/i/Vl10-lkRVGr2m
Тип релиза: BDRemux 1080p
Контейнер: MKV
Видео: MPEG-4 AVC / Video 31988 kbps 1080p / 23.976 fps / 16:9 / High Profile 4.1
Аудио 1: Russian / DD 2.0 / 48 kHz / 224 kbps / 16-bit / |MVO, Universal|
Аудио 2: Russian / DD 2.0 / 48 kHz / 224 kbps / 16-bit / |MVO, Премьер Видео|
Аудио 3: Russian / DD 2.0 / 48 kHz / 192 kbps / 16-bit / |MVO, НТВ|
Аудио 4: Russian / DD 2.0 / 48 kHz / 192 kbps / 16-bit / |MVO, ТНТ|
Аудио 5: Russian / DD 2.0 / 48 kHz / 192 kbps / 16-bit / |неизвестный|
Аудио 6: Russian / DD 2.0 / 48 kHz / 192 kbps / 16-bit / |Прямостанов|
Аудио 7: Russian / DTS-HD MA 2.0 / 48 kHz / 2105 kbps / 24-bit (DTS Core: 2.0 / 48 kHz / 1509 kbps / 24-bit) |MVO|
Аудио 8: Russian / DTS-HD MA 2.0 / 48 kHz / 2113 kbps / 24-bit (DTS Core: 2.0 / 48 kHz / 1509 kbps / 24-bit) |Михалёв, Алексей Михайлович|
Аудио 9: English / DTS-HD MA 2.0 / 48 kHz / 2201 kbps / 24-bit (DTS Core: 2.0 / 48 kHz / 1509 kbps / 24-bit)
Формат субтитров: softsub (SRT)

MediaInfo

Общее
Уникальный идентификатор : 248834309784814805386733342027801828023 (0xBB33BEADDECCF573969874B779E61AB7)
Полное имя : E:\V.S.P\MOVIE\Arnold Schwarzenegger\Kindergarten Cop_1990г\_Kindergarten Cop_1990г_Arnold Schwarzenegger_.mkv
Формат : Matroska
Версия формата : Version 4 / Version 2
Размер файла : 30,6 Гбайт
Продолжительность : 1 ч. 51 м.
Режим общего битрейта : Переменный
Общий поток : 39,4 Мбит/сек
Название фильма : _|Kindergarten Cop_1990г_Arnold Schwarzenegger|_
Дата кодирования : UTC 2014-06-28 19:31:44
Программа кодирования : mkvmerge v6.4.1 ('Omega Point') built on Sep 16 2013 22:05:10
Библиотека кодирования : libebml v1.3.0 + libmatroska v1.4.1
Видео
Идентификатор : 1
Формат : AVC
Формат/Информация : Advanced Video Codec
Профиль формата : High@L4.1
Параметр CABAC формата : Да
Параметр ReFrames формата : 4 кадра
Идентификатор кодека : V_MPEG4/ISO/AVC
Продолжительность : 1 ч. 51 м.
Вид битрейта : Переменный
Максимальный битрейт : 35,0 Мбит/сек
Ширина : 1920 пикселей
Высота : 1080 пикселей
Соотношение сторон : 16:9
Режим частоты кадров : Постоянный
Частота кадров : 23,976 кадра/сек
Цветовое пространство : YUV
Субдискретизация насыщенности : 4:2:0
Битовая глубина : 8 бит
Тип развёртки : Прогрессивная
Заголовок : _|Kindergarten Cop_1990г_Arnold Schwarzenegger|_
Язык : English
Default : Да
Forced : Нет
Аудио #1
Идентификатор : 2
Формат : AC-3
Формат/Информация : Audio Coding 3
Расширение режима : CM (complete main)
Параметр Endianness формата : Big
Идентификатор кодека : A_AC3
Продолжительность : 1 ч. 51 м.
Вид битрейта : Постоянный
Битрейт : 224 Кбит/сек
Каналы : 2 канала
Расположение каналов : Front: L R
Частота : 48,0 КГц
Битовая глубина : 16 бит
Метод сжатия : С потерями
Размер потока : 178 Мбайт (1%)
Заголовок : _|MVO, Universal|_
Язык : Russian
Default : Да
Forced : Нет
Аудио #2
Идентификатор : 3
Формат : AC-3
Формат/Информация : Audio Coding 3
Расширение режима : CM (complete main)
Параметр Endianness формата : Big
Идентификатор кодека : A_AC3
Продолжительность : 1 ч. 51 м.
Вид битрейта : Постоянный
Битрейт : 224 Кбит/сек
Каналы : 2 канала
Расположение каналов : Front: L R
Частота : 48,0 КГц
Битовая глубина : 16 бит
Метод сжатия : С потерями
Размер потока : 178 Мбайт (1%)
Заголовок : _|MVO, Премьер Видео|_
Язык : Russian
Default : Нет
Forced : Нет
Аудио #3
Идентификатор : 4
Формат : AC-3
Формат/Информация : Audio Coding 3
Расширение режима : CM (complete main)
Параметр Endianness формата : Big
Идентификатор кодека : A_AC3
Продолжительность : 1 ч. 51 м.
Вид битрейта : Постоянный
Битрейт : 192 Кбит/сек
Каналы : 2 канала
Расположение каналов : Front: L R
Частота : 48,0 КГц
Битовая глубина : 16 бит
Метод сжатия : С потерями
Размер потока : 153 Мбайт (0%)
Заголовок : _|MVO, НТВ|_
Язык : Russian
Default : Нет
Forced : Нет
Аудио #4
Идентификатор : 5
Формат : AC-3
Формат/Информация : Audio Coding 3
Расширение режима : CM (complete main)
Параметр Endianness формата : Big
Идентификатор кодека : A_AC3
Продолжительность : 1 ч. 51 м.
Вид битрейта : Постоянный
Битрейт : 192 Кбит/сек
Каналы : 2 канала
Расположение каналов : Front: L R
Частота : 48,0 КГц
Битовая глубина : 16 бит
Метод сжатия : С потерями
Размер потока : 153 Мбайт (0%)
Заголовок : _|MVO,ТНТ|_
Язык : Russian
Default : Нет
Forced : Нет
Аудио #5
Идентификатор : 6
Формат : AC-3
Формат/Информация : Audio Coding 3
Расширение режима : CM (complete main)
Параметр Endianness формата : Big
Идентификатор кодека : A_AC3
Продолжительность : 1 ч. 51 м.
Вид битрейта : Постоянный
Битрейт : 192 Кбит/сек
Каналы : 2 канала
Расположение каналов : Front: L R
Частота : 48,0 КГц
Битовая глубина : 16 бит
Метод сжатия : С потерями
Размер потока : 153 Мбайт (0%)
Заголовок : _|неизвестный|_
Язык : Russian
Default : Нет
Forced : Нет
Аудио #6
Идентификатор : 7
Формат : AC-3
Формат/Информация : Audio Coding 3
Расширение режима : CM (complete main)
Параметр Endianness формата : Big
Идентификатор кодека : A_AC3
Продолжительность : 1 ч. 51 м.
Вид битрейта : Постоянный
Битрейт : 192 Кбит/сек
Каналы : 2 канала
Расположение каналов : Front: L R
Частота : 48,0 КГц
Битовая глубина : 16 бит
Метод сжатия : С потерями
Размер потока : 153 Мбайт (0%)
Заголовок : _|Прямостанов|_
Язык : Russian
Default : Нет
Forced : Нет
Аудио #7
Идентификатор : 8
Формат : DTS
Формат/Информация : Digital Theater Systems
Профиль формата : MA / Core
Режим : 16
Параметр Endianness формата : Big
Идентификатор кодека : A_DTS
Продолжительность : 1 ч. 51 м.
Вид битрейта : Переменный
Битрейт : Неизвестно / 1509 Кбит/сек
Каналы : 2 канала
Расположение каналов : Front: L R
Частота : 48,0 КГц
Битовая глубина : 24 бит
Метод сжатия : Без потерь / Lossy
Заголовок : _|MVO|_
Язык : Russian
Default : Нет
Forced : Нет
Аудио #8
Идентификатор : 9
Формат : DTS
Формат/Информация : Digital Theater Systems
Профиль формата : MA / Core
Режим : 16
Параметр Endianness формата : Big
Идентификатор кодека : A_DTS
Продолжительность : 1 ч. 51 м.
Вид битрейта : Переменный
Битрейт : Неизвестно / 1509 Кбит/сек
Каналы : 2 канала
Расположение каналов : Front: L R
Частота : 48,0 КГц
Битовая глубина : 24 бит
Метод сжатия : Без потерь / Lossy
Заголовок : _|Михалёв, Алексей Михайлович|_
Язык : Russian
Default : Нет
Forced : Нет
Аудио #9
Идентификатор : 10
Формат : DTS
Формат/Информация : Digital Theater Systems
Профиль формата : MA / Core
Режим : 16
Параметр Endianness формата : Big
Идентификатор кодека : A_DTS
Продолжительность : 1 ч. 51 м.
Вид битрейта : Переменный
Битрейт : Неизвестно / 1509 Кбит/сек
Каналы : 2 канала
Расположение каналов : Front: L R
Частота : 48,0 КГц
Битовая глубина : 24 бит
Метод сжатия : Без потерь / Lossy
Язык : English
Default : Нет
Forced : Нет
Текст #1
Идентификатор : 11
Формат : UTF-8
Идентификатор кодека : S_TEXT/UTF8
Идентификатор кодека/Информация : UTF-8 Plain Text
Заголовок : full
Язык : English
Default : Нет
Forced : Нет
Текст #2
Идентификатор : 12
Формат : UTF-8
Идентификатор кодека : S_TEXT/UTF8
Идентификатор кодека/Информация : UTF-8 Plain Text
Заголовок : SDH_full
Язык : English
Default : Нет
Forced : Нет
Меню
00:00:00.000 : :00:00:00.000
00:03:27.374 : :00:03:27.374
00:09:53.092 : :00:09:53.092
00:15:13.579 : :00:15:13.579
00:21:55.898 : :00:21:55.898
00:25:05.295 : :00:25:05.295
00:30:26.700 : :00:30:26.700
00:36:24.099 : :00:36:24.099
00:42:38.890 : :00:42:38.890
00:47:33.851 : :00:47:33.851
00:55:45.634 : :00:55:45.634
01:02:02.469 : :01:02:02.469
01:12:24.674 : :01:12:24.674
01:20:38.917 : :01:20:38.917
01:24:14.883 : :01:24:14.883
01:28:32.641 : :01:28:32.641
01:32:02.517 : :01:32:02.517
01:38:32.156 : :01:38:32.156
01:44:47.615 : :01:44:47.615
01:51:13.834 : :01:51:13.834

Интересные Факты

Сцена, в которой Фиби пытается притвориться немкой, произнося набор бессмысленных фраз на немецком, осталась неизменённой в дублированной немецкой версии, что вызвало изрядное замешательство у многих посетителей сеансов.
Героя четырехлетнего Мико Хьюза зовут Джозеф Казинс, также как и одного из юных актёров, сыгравших роль Доминика (его сыграли братья-близнецы Джозеф Казинс и Кристиан Казинс).
Роль главного героя первоначально была предложена Биллу Мюррэю. Другой потенциальной кандидатурой на неё был Дэнни ДеВито, который не получил роль из-за своего слишком маленького роста.
Поэма, которую Джон Кимбл (Арнольд Шварценеггер) читает детям перед сном, это «Весеннее утро» известного британского писателя А. А. Милна.
Персонаж одной из девочек Эммы (Сара Роуз Карр) получил свое имя в честь дочери режиссёра Айвена Райтмана.
Съёмки фильма прошли с 30 мая по 4 сентября 1990 года в городке Астория, штат Орегон, а также павильонах студии Universal в Калифорнии. Сцены в школе были сняты в начальной школе John Jacob Astor Elementary School, где киностудия наняла местных художников сделать настенные рисунки во внутренних помещениях, обеспечила новый инвентарь для игровой площадки, огородила её и обустроила свежие лужайки и живые изгороди. Поскольку к моменту начала основных съёмок в июне
школьные занятия уже закончились, многие ученики школы и её работники смогли получить небольшие роли либо были задействованы в качестве участников массовки.

_________________
Показать сообщения:    

Текущее время: Сегодня 18:46

Часовой пояс: GMT



Вы не можете начинать темы
Вы не можете отвечать на сообщения
Вы не можете редактировать свои сообщения
Вы не можете удалять свои сообщения
Вы не можете голосовать в опросах
Вы не можете прикреплять файлы к сообщениям
Вы не можете скачивать файлы