Важное объявление!
У Нас Все раздачи мультитрекерные, при нуле пиров в релизах, можете смело вставать на закачку!
 
Автор Сообщение

HUNTER

Стаж:
4 года 4 месяца
Сообщений:
56829

Репутация: 101

[+] [-]
Вне форума [Профиль] [ЛС]

Детсадовский полицейский 2Kindergarten Cop 2
Страна: США
Жанр: комедия
Год выпуска: 2016
Продолжительность: 01:40:06
Перевод: Профессиональный (дублированный) R5
Cубтитры: английские [Full, SDH]
Оригинальная аудиодорожка: английский
-
Режиссер: Дон Майкл Пол / Don Michael Paul
В ролях: Дольф Лундгрен, Фиона Врум, Сара Стрэйндж, Дарла Тейлор, Алекс Паунович, Билл Беллами, Джоди Томпсон, Энид-Рэй Адамс, Ребекка Олсон, Рафаэль Алехандро
-
Описание: Главный человек в рядах албанской Мафии Зогу - арестован. Операция ФБР была успешной. Предстоит суд. Главный свидетель на нем - бывшая подруга главаря мафии. Катя находится под защитой властей. Агенты-напарники Сандерс и Рид "ведут" данное дело, и вскоре узнают, что Зогу хочет сделать так, чтобы Катя не дала в суде показания против него. Есть некая программа защиты свидетелей с секретными данными, которая была украдена мелкими воришками. Рид выясняет, что эти секретные данные хранятся на некой флешке. Которая спрятана в престижном детском саду. Риду придется устроиться на работу в детский сад. Такова работа под прикрытием. Нашему герою придется поладить с детьми. Чего он вовсе делать не умеет. И найти накопитель, опередив изворотливого Зогу. Бандит будет делать все, чтобы добраться до цели, "убрать" Катю, и... остаться на свободе.
[img]https://rating.kinopoisk.ru/916657.gif[/img]
Тип релиза: BDRip 1080p
Контейнер: MKV
Видео: H.264 / NTSC 16:9 / 1920x1080 (1,78:1) / 15685 kbps / 23,976 fps / 0.315 bit/pixel / High@L4.1
Аудио 1: Russian / Dolby Digital Audio / 5.1 Ch / 48 kHz / 384 kbps / 16 bit / DUB
Аудио 2: English / Digital Theater Systems / 5.1 Ch / 48 kHz / 1509 kbps / 24 bit / Original
Формат субтитров: softsub (SRT)
Навигация по главам: есть

MediaInfo

Код:
Общее
Уникальный идентификатор                 : 228305294919217402085865540894455319344 (0xABC20019DE19E33B9E1AFB7B8D094B30)
Полное имя                               : D:\Kindergarten Cop 2.2016.BDRip.1080p.mkv
Формат                                   : Matroska
Версия формата                           : Version 4 / Version 2
Размер файла                             : 12,3 Гбайт
Продолжительность                        : 1 ч. 40 м.
Общий поток                              : 17,6 Мбит/сек
Название фильма                          : Release for RuTracker © flaSI-I
Дата кодирования                         : UTC 2016-07-24 14:20:00
Программа кодирования                    : mkvmerge v9.3.1 ('Mask Machine') 64bit
Библиотека кодирования                   : libebml v1.3.4 + libmatroska v1.4.5
Видео
Идентификатор                            : 1
Формат                                   : AVC
Формат/Информация                        : Advanced Video Codec
Профиль формата                          : High@L4.1
Параметр CABAC формата                   : Да
Параметр ReFrames формата                : 4 кадра
Идентификатор кодека                     : V_MPEG4/ISO/AVC
Продолжительность                        : 1 ч. 40 м.
Битрейт                                  : 15,7 Мбит/сек
Ширина                                   : 1920 пикселей
Высота                                   : 1080 пикселей
Соотношение сторон                       : 16:9
Режим частоты кадров                     : Постоянный
Частота кадров                           : 23,976 (24000/1001) кадра/сек
Цветовое пространство                    : YUV
Субдискретизация насыщенности            : 4:2:0
Битовая глубина                          : 8 бит
Тип развёртки                            : Прогрессивная
Бит/(Пиксели*Кадры)                      : 0.315
Размер потока                            : 11,0 Гбайт (89%)
Библиотека кодирования                   : x264 core 148 r2692kMod 64f4e24
Настройки программы                      : cabac=1 / ref=4 / deblock=1:-3:-3 / analyse=0x3:0x133 / me=umh / subme=10 / psy=1 / fade_compensate=0.00 / psy_rd=0.80:0.00 / mixed_ref=1 / me_range=32 / chroma_me=1 / trellis=2 / 8x8dct=1 / cqm=0 / deadzone=21,11 / fast_pskip=1 / chroma_qp_offset=-2 / threads=6 / lookahead_threads=1 / sliced_threads=0 / nr=0 / decimate=1 / interlaced=0 / bluray_compat=0 / constrained_intra=0 / fgo=0 / bframes=6 / b_pyramid=2 / b_adapt=2 / b_bias=0 / direct=3 / weightb=1 / open_gop=0 / weightp=2 / keyint=250 / keyint_min=23 / scenecut=40 / intra_refresh=0 / rc=crf / mbtree=0 / crf=17.2000 / qcomp=0.48 / qpmin=0 / qpmax=69 / qpstep=4 / ip_ratio=1.28 / pb_ratio=1.20 / aq=3:0.58
Язык                                     : English
Default                                  : Да
Forced                                   : Нет
Аудио #1
Идентификатор                            : 2
Формат                                   : AC-3
Формат/Информация                        : Audio Coding 3
Расширение режима                        : CM (complete main)
Параметр Endianness формата              : Big
Идентификатор кодека                     : A_AC3
Продолжительность                        : 1 ч. 40 м.
Вид битрейта                             : Постоянный
Битрейт                                  : 384 Кбит/сек
Каналы                                   : 6 каналов
Расположение каналов                     : Front: L C R, Side: L R, LFE
Частота                                  : 48,0 КГц
Частота кадров                           : 31,250 кадров/сек (1536 spf)
Метод сжатия                             : С потерями
Размер потока                            : 275 Мбайт (2%)
Заголовок                                : DUB / R5
Язык                                     : Russian
Default                                  : Да
Forced                                   : Нет
Аудио #2
Идентификатор                            : 3
Формат                                   : DTS
Формат/Информация                        : Digital Theater Systems
Режим                                    : 16
Параметр Endianness формата              : Big
Идентификатор кодека                     : A_DTS
Продолжительность                        : 1 ч. 40 м.
Вид битрейта                             : Постоянный
Битрейт                                  : 1509 Кбит/сек
Каналы                                   : 6 каналов
Расположение каналов                     : Front: L C R, Side: L R, LFE
Частота                                  : 48,0 КГц
Частота кадров                           : 93,750 кадра/сек (512 spf)
Битовая глубина                          : 24 бит
Метод сжатия                             : С потерями
Размер потока                            : 1,06 Гбайт (9%)
Заголовок                                : Original
Язык                                     : English
Default                                  : Нет
Forced                                   : Нет
Текст #1
Идентификатор                            : 4
Формат                                   : UTF-8
Идентификатор кодека                     : S_TEXT/UTF8
Идентификатор кодека/Информация          : UTF-8 Plain Text
Продолжительность                        : 1 ч. 34 м.
Битрейт                                  : 66 бит/сек
Count of elements                        : 1513
Размер потока                            : 46,6 Кбайт (0%)
Заголовок                                : Original
Язык                                     : English
Default                                  : Нет
Forced                                   : Нет
Текст #2
Идентификатор                            : 5
Формат                                   : UTF-8
Идентификатор кодека                     : S_TEXT/UTF8
Идентификатор кодека/Информация          : UTF-8 Plain Text
Продолжительность                        : 1 ч. 35 м.
Битрейт                                  : 71 бит/сек
Count of elements                        : 1660
Размер потока                            : 49,9 Кбайт (0%)
Заголовок                                : Original / SDH
Язык                                     : English
Default                                  : Нет
Forced                                   : Нет
Меню
00:00:00.000                             : en:00:00:00.000
00:07:32.535                             : en:00:07:32.535
00:14:16.564                             : en:00:14:16.564
00:22:52.830                             : en:00:22:52.830
00:34:34.698                             : en:00:34:34.698
00:43:36.614                             : en:00:43:36.614
00:53:14.233                             : en:00:53:14.233
01:00:23.787                             : en:01:00:23.787
01:10:18.381                             : en:01:10:18.381
01:18:36.128                             : en:01:18:36.128
01:26:38.026                             : en:01:26:38.026
01:34:38.464                             : en:01:34:38.464

Скриншоты


_________________
Показать сообщения:    

Текущее время: Сегодня 17:10

Часовой пояс: GMT



Вы не можете начинать темы
Вы не можете отвечать на сообщения
Вы не можете редактировать свои сообщения
Вы не можете удалять свои сообщения
Вы не можете голосовать в опросах
Вы не можете прикреплять файлы к сообщениям
Вы не можете скачивать файлы