Важное объявление!
У Нас Все раздачи мультитрекерные, при нуле пиров в релизах, можете смело вставать на закачку!
 
Автор Сообщение

HUNTER

Стаж:
4 года 4 месяца
Сообщений:
56719

Репутация: 101

[+] [-]
Вне форума [Профиль] [ЛС]

Деревенщина из Беверли-Хиллз / Приятели из Беверли-Хиллз / The Beverly Hillbillies
Страна: США
Жанр: комедия, семейный
Год выпуска: 1993
Продолжительность: 01:33:31
Перевод 1: Профессиональный (многоголосый закадровый) 1 канал
Перевод 2: Авторский (одноголосый закадровый) Леонид Володарский
Перевод 3: Авторский (одноголосый закадровый) Вартан Дохалов
Cубтитры: английские
Оригинальная аудиодорожка: английский
Режиссер: Пенелопа Сфирис / Penelope Spheeris
В ролях: Джим Варни, Дидрих Бадер, Эрика Элениак, Клорис Личмен, Лили Томлин, Лиа Томпсон, Долли Партон, Роб Шнайдер, Дэбни Коулмен, Пенни Фуллер...
Описание: Комедия о семейке из самого сердца американской глубинки. Глава семьи случайно обнаружил в болоте огромные запасы нефти. Он продал землю за миллиард долларов и переехал вместе с семьёй в «город богачей» — Беверли Хиллз. Деревенщины из Аризоны нагло смешались с самыми что ни на есть сливками американского общества…
Доп. информация:
Перевод 1 канала с раздачи miha2154.
Перевод Володарского с раздачи infict.
Перевод Дохалова с раздачи _int_.
Синхронизация переводов - Dreven.
Сэмпл: http://sendfile.su/1129969
Тип релиза: WEB-DL 1080p
Контейнер: MKV
Видео: 1920x1080 (16:9), 23.976 fps, AVC, ~10000 Kbps, 0.201 bits/pixel
Аудио 1: Russian, 48.0 KHz, AC3, 2 ch, 192 Kbps - 1 канал
Аудио 2: Russian, 48.0 KHz, AC3, 2 ch, 192 Kbps - Леонид Володарский
Аудио 3: Russian, 48.0 KHz, AC3, 2 ch, 192 Kbps - Вартан Дохалов
Аудио 4: English, 48.0 KHz, AC3, 6 ch, 448 Kbps

MediaInfo

General
Unique ID : 236337531934011100039269274021885100481 (0xB1CCF3F6110E0A868D20022E676FC1C1)
Complete name : D:\The Beverly Hillbillies. WEB-DL 1080p.mkv
Format : Matroska
Format version : Version 4 / Version 2
File size : 7.18 GiB
Duration : 1h 33mn
Overall bit rate : 11.0 Mbps
Movie name :
Encoded date : UTC 2015-06-19 17:23:06
Writing application : mkvmerge v7.9.0 ('Birds') 64bit
Writing library : libebml v1.3.1 + libmatroska v1.4.2
DURATION : 01:27:52.230000000
NUMBER_OF_FRAMES : 1146
NUMBER_OF_BYTES : 46466
_STATISTICS_WRITING_APP : mkvmerge v7.9.0 ('Birds') 64bit
_STATISTICS_WRITING_DATE_UT : 2015-06-19 17:23:06
_STATISTICS_TAGS : BPS DURATION NUMBER_OF_FRAMES NUMBER_OF_BYTES
Video
ID : 1
Format : AVC
Format/Info : Advanced Video Codec
Format profile : High@L4
Format settings, CABAC : Yes
Format settings, ReFrames : 4 frames
Format settings, GOP : M=4, N=48
Codec ID : V_MPEG4/ISO/AVC
Duration : 1h 33mn
Bit rate mode : Constant
Bit rate : 10 000 Kbps
Width : 1 920 pixels
Height : 1 080 pixels
Display aspect ratio : 16:9
Frame rate mode : Constant
Frame rate : 23.976 fps
Color space : YUV
Chroma subsampling : 4:2:0
Bit depth : 8 bits
Scan type : Progressive
Bits/(Pixel*Frame) : 0.201
Stream size : 6.36 GiB (89%)
Language : English
Default : Yes
Forced : No
Color range : Limited
Color primaries : BT.709
Transfer characteristics : BT.709
Matrix coefficients : BT.709
Audio #1
ID : 2
Format : AC-3
Format/Info : Audio Coding 3
Mode extension : CM (complete main)
Format settings, Endianness : Big
Codec ID : A_AC3
Duration : 1h 33mn
Bit rate mode : Constant
Bit rate : 192 Kbps
Channel(s) : 2 channels
Channel positions : Front: L R
Sampling rate : 48.0 KHz
Compression mode : Lossy
Stream size : 128 MiB (2%)
Title : 1 канал
Language : Russian
Default : Yes
Forced : No
Audio #2
ID : 3
Format : AC-3
Format/Info : Audio Coding 3
Mode extension : CM (complete main)
Format settings, Endianness : Big
Codec ID : A_AC3
Duration : 1h 33mn
Bit rate mode : Constant
Bit rate : 192 Kbps
Channel(s) : 2 channels
Channel positions : Front: L R
Sampling rate : 48.0 KHz
Compression mode : Lossy
Stream size : 128 MiB (2%)
Title : Леонид Володарский
Language : Russian
Default : No
Forced : No
Audio #3
ID : 4
Format : AC-3
Format/Info : Audio Coding 3
Mode extension : CM (complete main)
Format settings, Endianness : Big
Codec ID : A_AC3
Duration : 1h 33mn
Bit rate mode : Constant
Bit rate : 192 Kbps
Channel(s) : 2 channels
Channel positions : Front: L R
Sampling rate : 48.0 KHz
Compression mode : Lossy
Stream size : 128 MiB (2%)
Title : Вартан Дохалов
Language : Russian
Default : No
Forced : No
Audio #4
ID : 5
Format : AC-3
Format/Info : Audio Coding 3
Mode extension : CM (complete main)
Format settings, Endianness : Big
Codec ID : A_AC3
Duration : 1h 33mn
Bit rate mode : Constant
Bit rate : 448 Kbps
Channel(s) : 6 channels
Channel positions : Front: L C R, Side: L R, LFE
Sampling rate : 48.0 KHz
Compression mode : Lossy
Stream size : 300 MiB (4%)
Language : English
Default : No
Forced : No
Text
ID : 6
Format : UTF-8
Codec ID : S_TEXT/UTF8
Codec ID/Info : UTF-8 Plain Text
Language : English
Default : No
Forced : No

Скриншоты


_________________
Показать сообщения:    

Текущее время: Сегодня 01:34

Часовой пояс: GMT



Вы не можете начинать темы
Вы не можете отвечать на сообщения
Вы не можете редактировать свои сообщения
Вы не можете удалять свои сообщения
Вы не можете голосовать в опросах
Вы не можете прикреплять файлы к сообщениям
Вы не можете скачивать файлы