Важное объявление!
У Нас Все раздачи мультитрекерные, при нуле пиров в релизах, можете смело вставать на закачку!
 
Автор Сообщение

HUNTER

Стаж:
4 года 4 месяца
Сообщений:
56798

Репутация: 101

[+] [-]
Вне форума [Профиль] [ЛС]

День рождения Буржуя-Количество серий: 15
Год выпуска: 1999 - 2001
Страна: Россия
Жанр: остросюжетный детектив
Продолжительность: 15 х ~ 00:50:00
Кол-во серий/сезонов: сезон 1, серии 1- 15 из 15
Перевод: не требуется
Субтитры: нет-В ролях: Валерий Николаев, Ирина Апексимова, Андрей Смоляков, Анатолий Журавлев, Елена Шевченко, Александр Феклистов, Виктория Малекторович, Дмитрий Шевченко
Режиссёр: Анатолий Матешко-Описание: Владимир Коваленко — из тех бизнесменов, что «сделали себя сами». У него есть все, о чем можно только мечтать: хорошо налаженный бизнес, красивая возлюбленная, известность. Вот только своих настоящих имени и фамилии он не знает: он — подкидыш, кличку «Буржуй» получил еще в детском доме — за то, что с детства знал цену деньгам.
Вместе с любимой женщиной, из любопытства, он пришел на спиритический сеанс. Оба и не подозревали, что неизвестный «дух» может давать показания не хуже, чем на допросе: «Буржуй» получает информацию о тайне своего рождения! Но что, если за этой «спиритической подсказкой» стоят вполне реальные враги?-Качество: DVDRip
Формат: AVI
Видео кодек: XviD 1.1 beta 2 (build 39)
Аудио кодек: MPEG Layer 3
Видео: 998 Kbps, 720*544 (4/3) at 25.000fps
Аудио: MPEG Audio Layer 3 48000Hz stereo 224Kbps-

MediaInfo

Код: copyText_writeLink('this.parentNode.parentNode.nextSibling.nextSibling'); Общее
Формат : AVI
Формат/Информация : Audio Video Interleave
Размер файла : 461 Мбайт
Продолжительность : 52 м.
Общий поток : 1234 Кбит/сек
Видео
Идентификатор : 0
Формат : MPEG-4 Visual
Профиль формата : Simple@L3
Параметр BVOP формата : Нет
Параметр QPel формата : Нет
Параметр GMC формата : Без точки перехода
Параметр матрицы формата : Default (H.263)
Идентификатор кодека : XVID
Идентификатор кодека/Подсказка : XviD
Продолжительность : 52 м.
Битрейт : 998 Кбит/сек
Ширина : 720 пикселей
Высота : 544 пикселя
Соотношение сторон : 4:3
Частота кадров : 25,000 кадров/сек
Цветовое пространство : YUV
Субдискретизация насыщенности : 4:2:0
Битовая глубина : 8 бит
Тип развёртки : Прогрессивная
Метод сжатия : С потерями
Бит/(Пиксели*Кадры) : 0.102
Размер потока : 373 Мбайт (81%)
Библиотека кодирования : XviD 1.1.0 Beta2 (UTC 2005-04-04)
Аудио
Идентификатор : 1
Формат : MPEG Audio
Версия формата : Version 1
Профиль формата : Layer 3
Режим : Joint stereo
Расширение режима : MS Stereo
Идентификатор кодека : 55
Идентификатор кодека/Подсказка : MP3
Продолжительность : 52 м.
Вид битрейта : Постоянный
Битрейт : 224 Кбит/сек
Каналы : 2 канала
Частота : 48,0 КГц
Метод сжатия : С потерями
Размер потока : 83,7 Мбайт (18%)
Выравнивание : Соединение по промежуткам
Продолжительность промежутка : 24 мс. (0,60 видеокадр)
Время предзагрузки промежутка : 504 мс.
Библиотека кодирования : LAME3.96.1

Скриншоты


_________________
Показать сообщения:    

Текущее время: Сегодня 22:31

Часовой пояс: GMT



Вы не можете начинать темы
Вы не можете отвечать на сообщения
Вы не можете редактировать свои сообщения
Вы не можете удалять свои сообщения
Вы не можете голосовать в опросах
Вы не можете прикреплять файлы к сообщениям
Вы не можете скачивать файлы