Важное объявление!
У Нас Все раздачи мультитрекерные, при нуле пиров в релизах, можете смело вставать на закачку!
 
Автор Сообщение

димитри37

Стаж:
3 года 8 месяцев
Сообщений:
1237

Репутация: 127

[+] [-]
Вне форума [Профиль] [ЛС]

День президента / President's Day
Страна: США
Жанр: комедия, ужасы
Год выпуска: 2010
Продолжительность: 01:22:12
Перевод: Одноголосый закадровый Васька Куролесов
Cубтитры: нет
Режиссер: Крис Ла Мартина / Chris LaMartina
В ролях: Бенни Макк МакКой IV, Лиззи Дэннинг, Николетт Ле Фэй, Райан Томас, Джордж Стоувер, Шон С. Филлипс, Руби ЛаРокка, Пол Фаренкопф, Андреа Хирн, Ли Армстронг
Описание: В Старшей Школе имени Линкольна, готовятся к проведению выборов Президента Школьного Совета, кандидатов много, но кажется, кто-то из них считает, что поста президента можно добиваться любыми средствами, включая убийства своих "политических" оппонентов. А возможно, это просто призрак Честного Эйба, решил напомнить всем, что скоро - день его рождения?
В любом случае, Барри - один из претендентов на пост президента, скоро сам все выяснит!

Качество видео: DVDRip
Формат видео: AVI
Видео: 720x404 (1.78:1), 23.976 fps, XviD MPEG-4 ~ 1272 kbps avg, 0.18 bit/pixel
Аудио: 48 kHz, MPEG Layer 3, 2 ch, 128.00 kbps avg
Видео кодек: XviD
Аудио кодек: MPEG Layer 3,

MediaInfo

I:\PRESIDENTS_DAY_KypoJIecoB.avi
General
Complete name : I:\PRESIDENTS_DAY_KypoJIecoB.avi
Format : AVI
Format/Info : Audio Video Interleave
File size : 828 MiB
Duration : 1h 22mn
Overall bit rate : 1 409 Kbps
Video #0
ID : 0
Format : MPEG-4 Visual
Format profile : Advanced Simple@L5
Format settings, BVOP : 2
Format settings, QPel : No
Format settings, GMC : No warppoints
Format settings, Matrix : Default (H.263)
Codec ID : XVID
Codec ID/Hint : XviD
Duration : 1h 22mn
Bit rate : 1 272 Kbps
Width : 720 pixels
Height : 404 pixels
Display aspect ratio : 16:9
Frame rate : 23.976 fps
Color space : YUV
Chroma subsampling : 4:2:0
Bit depth : 8 bits
Scan type : Progressive
Compression mode : Lossy
Bits/(Pixel*Frame) : 0.182
Stream size : 748 MiB (90%)
Writing library : XviD 64
Audio #1
ID : 1
Format : MPEG Audio
Format version : Version 1
Format profile : Layer 3
Mode : Joint stereo
Mode extension : MS Stereo
Codec ID : 55
Codec ID/Hint : MP3
Duration : 1h 22mn
Bit rate mode : Constant
Bit rate : 128 Kbps
Channel(s) : 2 channels
Sampling rate : 48.0 KHz
Compression mode : Lossy
Stream size : 75.3 MiB (9%)
Alignment : Aligned on interleaves
Interleave, duration : 42 ms (1.00 video frame)
Interleave, preload duration : 504 ms

Скриншот c названием фильма

Скриншоты

-
Показать сообщения:    

Текущее время: Сегодня 19:41

Часовой пояс: GMT



Вы не можете начинать темы
Вы не можете отвечать на сообщения
Вы не можете редактировать свои сообщения
Вы не можете удалять свои сообщения
Вы не можете голосовать в опросах
Вы не можете прикреплять файлы к сообщениям
Вы не можете скачивать файлы