Важное объявление!
У Нас Все раздачи мультитрекерные, при нуле пиров в релизах, можете смело вставать на закачку!
 
Автор Сообщение

HUNTER

Стаж:
4 года 4 месяца
Сообщений:
56749

Репутация: 101

[+] [-]
Вне форума [Профиль] [ЛС]

День Додо-
Год выпуска: 2012
Страна: Россия
Жанр: мелодрама, комедия
Продолжительность: 01:22:48
Перевод: Оригинал-Режиссер: Ирина Гедрович-В ролях: Владимир Стержаков , Дарья Сагалова (Маша), Александр Бобров (Гена), Андрей Федорцов , Валерий Гаркалин , Семён Стругачев , Вилле Хаапасало (Киркоров), Альберт Филозов , Александр Леньков , Ольга Волкова
-Описание: Весь год сотрудники музея трудились не покладая рук: составляли картотеки, протирали чучела, собирали по кусочкам историческое наследие. В канун Нового года им, конечно, хотелось настоящего праздника, но научные работники вниманием не избалованы и в средствах стеснены.Когда надежда на яркое торжество почти умерла, в музейную дверь постучали. Нежданные гости внезапно предложили устроить сотрудникам корпоратив с угощением, выпивкой и светомузыкой. Обалдевшие от радости музейщики даже предположить не могли, что меценаты — гангстеры, нанятые заокеанским коллекционером, а цель их — единственное сохранившееся чучело птицы додо.План бандитов был идеален, но они не учли одного: помимо хилых ботаников в музее работал охранник Гена. Он давно мечтал стать героем и произвести впечатление на экскурсовода Машу, а это значит, что у злодеев — ни единого шанса!-Премьера (РФ): 31 декабря 2012-Рейтинг: -Качество: SATRip
Формат: AVI
Видео кодек: XviD
Аудио кодеk: MP3
Видео: 720x400 (1.80:1), 25.000 fps, XviD MPEG-4, ~1495 kbps avg, 0.208 bit/pixel
Аудио: Аудио #1: MP3, 128 Kbps, 48.0 KHz, 2 ch
-

МедиаИнфо

Код: copyText_writeLink('this.parentNode.parentNode.nextSibling.nextSibling'); General
Complete name : День Додо.avi
Format : AVI
Format/Info : Audio Video Interleave
File size : 967 MiB
Duration : 1h 22mn
Overall bit rate : 1 632 Kbps
Writing application : VirtualDubMod 1.5.10.2 (build 2540/release)
Writing library : VirtualDub build 32507/release
Video
ID : 0
Format : MPEG-4 Visual
Format profile : Advanced Simple@L5
Format settings, BVOP : Yes
Format settings, QPel : No
Format settings, GMC : No warppoints
Format settings, Matrix : Default (MPEG)
Codec ID : XVID
Codec ID/Hint : XviD
Duration : 1h 22mn
Bit rate : 1 494 Kbps
Width : 720 pixels
Height : 400 pixels
Display aspect ratio : 16:9
Frame rate : 25.000 fps
Color space : YUV
Chroma subsampling : 4:2:0
Bit depth : 8 bits
Scan type : Progressive
Bits/(Pixel*Frame) : 0.208
Stream size : 885 MiB (92%)
Writing library : XviD 64
Audio
ID : 1
Format : MPEG Audio
Format version : Version 1
Format profile : Layer 3
Mode : Joint stereo
Codec ID : 55
Codec ID/Hint : MP3
Duration : 1h 22mn
Bit rate mode : Constant
Bit rate : 128 Kbps
Channel(s) : 2 channels
Sampling rate : 48.0 KHz
Stream size : 75.8 MiB (8%)
Alignment : Aligned on interleaves
Interleave, duration : 40 ms (1.00 video frame)
Interleave, preload duration : 504 ms
-
- -

_________________
Показать сообщения:    

Текущее время: Сегодня 00:01

Часовой пояс: GMT



Вы не можете начинать темы
Вы не можете отвечать на сообщения
Вы не можете редактировать свои сообщения
Вы не можете удалять свои сообщения
Вы не можете голосовать в опросах
Вы не можете прикреплять файлы к сообщениям
Вы не можете скачивать файлы