Важное объявление!
У Нас Все раздачи мультитрекерные, при нуле пиров в релизах, можете смело вставать на закачку!
 
Автор Сообщение

HUNTER

Стаж:
4 года 4 месяца
Сообщений:
56798

Репутация: 101

[+] [-]
Вне форума [Профиль] [ЛС]

-День выборов 2-
Страна: Россия
Жанр: Комедия
Год выпуска: 2016
Продолжительность: 01:44:06-Перевод: Не требуется
Cубтитры: нет
Оригинальная аудиодорожка: русский-Режиссёр: Александр Баршак-В ролях: Леонид Барац, Ростислав Хаит, Александр Демидов, Камиль Ларин, Василий Уткин, Нонна Гришаева, Максим Виторган, Михаил Ефремов, Алексей Макаров, Алексей Кортнев-Описание: Игорь Цаплин будет избираться на третий срок, а поможет ему в этом уже знакомая зрителю команда пиарщиков.- -
Качество видео
: WEB-DL 720p
Формат видео: MKV
Видео:AVC, 960x536@1280x536, 25.000 fps, ~3 942 Кbps avg, 0.306 bit/pixell
Аудио:48 kHz, AC3 Dolby Digital, 3/2 (L,C,R,l,r) + LFE ch, ~384.00 kbps avg-
-

MediaInfo

General
Unique ID : 191224757193093841766018275963670722560 (0x8FDC8C70F5CF595B96DF7619405D7800)
Complete name : D:\Фильмы\Den.viborov.2 WEBDLRip 720p.mkv
Format : Matroska
Format version : Version 4 / Version 2
File size : 3.15 GiB
Duration : 1h 44mn
Overall bit rate : 4 328 Kbps
Encoded date : UTC 2016-03-24 18:05:55
Writing application : mkvmerge v8.3.0 ('Over the Horizon') 64bit
Writing library : libebml v1.3.1 + libmatroska v1.4.2
Video
ID : 1
Format : AVC
Format/Info : Advanced Video Codec
Format profile : Main@L3.1
Format settings, CABAC : No
Format settings, ReFrames : 2 frames
Codec ID : V_MPEG4/ISO/AVC
Duration : 1h 44mn
Bit rate : 3 942 Kbps
Width : 960 pixels
Height : 536 pixels
Display aspect ratio : 2.40:1
Frame rate mode : Constant
Frame rate : 25.000 fps
Color space : YUV
Chroma subsampling : 4:2:0
Bit depth : 8 bits
Scan type : Progressive
Bits/(Pixel*Frame) : 0.306
Stream size : 2.87 GiB (91%)
Language : English
Default : Yes
Forced : No
Color range : Limited
Color primaries : BT.709
Transfer characteristics : BT.709
Matrix coefficients : BT.709
Audio
ID : 2
Format : AC-3
Format/Info : Audio Coding 3
Mode extension : CM (complete main)
Format settings, Endianness : Big
Codec ID : A_AC3
Duration : 1h 44mn
Bit rate mode : Constant
Bit rate : 384 Kbps
Channel(s) : 6 channels
Channel positions : Front: L C R, Side: L R, LFE
Sampling rate : 48.0 KHz
Frame rate : 31.250 fps (1536 spf)
Compression mode : Lossy
Stream size : 286 MiB (9%)
Language : Russian
Default : Yes
Forced : No
Menu
00:00:00.000 : en:Глава 1
00:05:12.680 : en:Глава 2
00:10:56.200 : en:Глава 3
00:16:56.600 : en:Глава 4
00:22:04.160 : en:Глава 5
00:27:38.400 : en:Глава 6
00:33:47.280 : en:Глава 7
00:39:29.440 : en:Глава 8
00:44:56.680 : en:Глава 9
00:50:17.760 : en:Глава 10
00:56:33.760 : en:Глава 11
01:01:49.280 : en:Глава 12
01:07:03.800 : en:Глава 13
01:13:17.680 : en:Глава 14
01:18:54.640 : en:Глава 15
01:25:07.960 : en:Глава 16
01:31:30.600 : en:Глава 17
01:38:11.640 : en:Глава 18

-

Скриншот c названием фильма

-

_________________
Показать сообщения:    

Текущее время: Сегодня 03:00

Часовой пояс: GMT



Вы не можете начинать темы
Вы не можете отвечать на сообщения
Вы не можете редактировать свои сообщения
Вы не можете удалять свои сообщения
Вы не можете голосовать в опросах
Вы не можете прикреплять файлы к сообщениям
Вы не можете скачивать файлы