Важное объявление!
У Нас Все раздачи мультитрекерные, при нуле пиров в релизах, можете смело вставать на закачку!
 
Автор Сообщение

HUNTER

Стаж:
4 года 4 месяца
Сообщений:
56749

Репутация: 101

[+] [-]
Вне форума [Профиль] [ЛС]

Демоны старшей школы / High School DxD(Янагисава Тэцуя)[TV+OVA+Special] [24+24 из 2+2 из 6+6] [без хардсаба] [JAP+SUB+RUS(ext)] [2012-13 г.] [приключения, мистика, этти, комедия, демоны ] [BDRemux 1080p]
Страна: ЯпонияГод выпуска: 2012-13г.
Жанр: приключения, мистика, этти, комедия, демоны
Тип: TV,OVA,SP
Продолжительность: ~24 - 27 мин. серия
Режиссер: Янагисава Тэцуя
Студия: TNK-Описание: Что нужно от жизни простому 17-летнему японскому школьнику? Иссэй Хёдо отлично знает ответ, ведь ради этого он и записался в бывшую женскую академию Комао! Хёдо наивно полагал, что после начала совместного обучения в условиях дефицита парней станет королем и познает весну жизни, однако идет второй год, девушки все так же преследуют немногих красавчиков, а герой с друзьями кусают локти и ищут дыры в женских раздевалках. О таких же, как королева школы Риас Гремори, остается только мечтать. Впрочем, жаркие мольбы Иссэя всем богам юности возымели эффект. Боги решили испытать парня и послали ему подружку, которая на первом же свидании… вонзила герою полметра стали в живот.
Долго ли, коротко, а Иссэй понял, что был спасен той самой Риас Гремори, недосягаемой красавицей и школьным идолом, а на деле – принцессой демонов. Теперь герой сам стал демоном и ее вассалом, а значит, присоединился к боевому отряду семьи Гремори, действующему под прикрытием школьного клуба оккультизма. Враг известен – падшие ангелы, которые желают сами играть первую скрипку в темном мире. Зачем Хёдо понадобился двум столь могущественным силам? Разумеется, дело в некоей сверхспособности, причем парень уверен, что знает истину – он больше всех в Японии достоин высокого звания Короля Гарема!
© Hollow, World Art-Качество: BDRemux
Тип релиза: Без хардсаба
Формат видео: M2TS
Видео: AVC 1920x1080; ~ 32.5 Mbps; max 37.7 Mbps ; 23.976 fps
Аудио: PCM 48000Hz stereo 1536kbps 16bit Язык Японский-Озвучка: двухголосая (муж./жен.) от Lord Alukart & NikaLenina [TV 1-12 OVA 13-14 SP 1-6] Cuba77 & NikaLenina [TV 15-26] (AniDUB)[ext]
трёхголосая от Zendos & Eladiel & Lupin (Anilibria) [TV 01-12, 15-26, OVA 13-14] [ext]
одноголосая (жен.) от Persona99 (GetSmart) [1-19][ext]-Субтитры: Русские:
Переводчик/Оформление: Akrioz
Переводчик/Редактор: novurdim
ANS (полные/вспомогательные) [TV 1-12 SP 1-2], shinodem [SP 3-5], Gerale [SP 6] [ext]
русские субтитры от Chirito & IIIu6ko & White_Kittik & Gerale (полные/вспомогательные) [TV 15-26 ] [ext]
присутствуют моменты без перевода (новые сцены), при просмотре дополнительно используйте субтитры в папке надписи [TV 15-26 ] [ext]

Подробные тех. данные
General #0 ID : 0 (0x0) Complete name : H:\Аниме BDRemux 1080p\High School DxD\High School DxD 01.m2ts Format : BDAV Format/Info : Blu-ray Video File size : 5.87 GiB Duration : 23mn 42s Overall bit rate mode : Variable Overall bit rate : 35.5 Mbps Maximum Overall bit rate : 48.0 Mbps Video #4113 ID : 4113 (0x1011) Menu ID : 1 (0x1) Format : AVC Format/Info : Advanced Video Codec Format profile : High@L4.1 Format settings, CABAC : Yes Format settings, ReFrames : 2 frames Codec ID : 27 Duration : 23mn 42s Bit rate mode : Variable Bit rate : 32.5 Mbps Width : 1 920 pixels Height : 1 080 pixels Display aspect ratio : 16:9 Frame rate : 23.976 fps Color space : YUV Chroma subsampling : 4:2:0 Bit depth : 8 bits Scan type : Progressive Bits/(Pixel*Frame) : 0.654 Stream size : 5.39 GiB (92%) Audio #4352 ID : 4352 (0x1100) Menu ID : 1 (0x1) Format : PCM Format settings, Endianness : Big Format settings, Sign : Signed Muxing mode : Blu-ray Codec ID : 128 Duration : 23mn 42s Bit rate mode : Constant Bit rate : 1 536 Kbps Channel(s) : 2 channels Channel positions : Front: L R Sampling rate : 48.0 KHz Bit depth : 16 bits Stream size : 261 MiB (4%)
General #0 ID : 0 (0x0) Complete name : H:\Аниме BDRemux 1080p\High School DxD\High School DxD 15 New 01.m2ts Format : BDAV Format/Info : Blu-ray Video File size : 7.67 GiB Duration : 26mn 54s Overall bit rate mode : Variable Overall bit rate : 40.8 Mbps Maximum Overall bit rate : 48.0 Mbps Video #4113 ID : 4113 (0x1011) Menu ID : 1 (0x1) Format : AVC Format/Info : Advanced Video Codec Format profile : High@L4.1 Format settings, CABAC : Yes Format settings, ReFrames : 2 frames Codec ID : 27 Duration : 26mn 54s Bit rate mode : Variable Bit rate : 37.7 Mbps Width : 1 920 pixels Height : 1 080 pixels Display aspect ratio : 16:9 Frame rate : 23.976 fps Color space : YUV Chroma subsampling : 4:2:0 Bit depth : 8 bits Scan type : Progressive Bits/(Pixel*Frame) : 0.758 Stream size : 7.08 GiB (92%) Audio #4352 ID : 4352 (0x1100) Menu ID : 1 (0x1) Format : PCM Format settings, Endianness : Big Format settings, Sign : Signed Muxing mode : Blu-ray Codec ID : 128 Duration : 26mn 54s Bit rate mode : Constant Bit rate : 1 536 Kbps Channel(s) : 2 channels Channel positions : Front: L R Sampling rate : 48.0 KHz Bit depth : 16 bits Stream size : 296 MiB (4%)
Список эпизодов
01. I Made a Girlfriend
02. I Stopped Being a Human
03. I Made a New Friend!
04. Save My Friend!
05. I`m Going to Overthrow my Ex-Girlfriend!
06. My Job as a Devil!
07. I`ll Get a Familiar!
08. I Pick a Fight!
09. My Training Begins!
10. Beginning of the Decisive Battle!
11. High Praises During the Decisive Battle!
12. I Came to Carry Out My Promise!
13. Boobs Bloom! OVA
14. I Wish For Boobs! OVA
15. Another Disquieting Premonition!
16. The Holy Sword Is Here!
17. I`ll Destroy the Holy Sword!
18. A Strong Enemy Appeared!
19. Decisive Battle at Kuoh Academy!
20. Go, Occult Research Club!
21. Summer! Bathing Suits! I`m in Trouble!
22. Open House Begins!
23. I Have a Junior!
24. Various Three-way Deadlocks!
25. The Leaders` Summit Begins!
26. Clash of the Twin Sky Dragons!
Special 1: We're Going Sun Bathing!
Special 2: Akeno-Senpai's Private Training!
Special 3: A Little Bold, Koneko-Chan... Nyan!
Special 4: The Untold Story of The Dress Break's Birth!
Special 5: Making Udon!
Special 6: Asia Transforms!
СкриншотыОтличия от других раздач
http://rutracker.org/forum/viewtopic.php?t=4000145 -Эта раздача BDRemux
http://rutracker.org/forum/viewtopic.php?t=4728036 -Эта раздача BDRemux
-Формат видео: mkv BDRemux http://rutracker.org/forum/viewtopic.php?t=4357407 -Эта раздача Формат видео: M2TS BDRemux

_________________
Показать сообщения:    

Текущее время: Сегодня 20:51

Часовой пояс: GMT



Вы не можете начинать темы
Вы не можете отвечать на сообщения
Вы не можете редактировать свои сообщения
Вы не можете удалять свои сообщения
Вы не можете голосовать в опросах
Вы не можете прикреплять файлы к сообщениям
Вы не можете скачивать файлы