Важное объявление!
У Нас Все раздачи мультитрекерные, при нуле пиров в релизах, можете смело вставать на закачку!
 
Автор Сообщение

HUNTER

Стаж:
4 года 4 месяца
Сообщений:
56719

Репутация: 101

[+] [-]
Вне форума [Профиль] [ЛС]

Дежурный папа / Daddy Day Care
Страна: США
Жанр: комедия, семейный
Год выпуска: 2003
Продолжительность: 01:32:31
Перевод 1: Профессиональный (дублированный) Видеосервис
Перевод 2: Профессиональный (двухголосый закадровый) Петр Гланц и Инна Королева
Перевод 3: Профессиональный (многоголосый закадровый)
Перевод 4: Авторский (одноголосый закадровый) Антон Карповский
Перевод 5: одноголосый закадровый Михаил Чадов
Cубтитры: русские
Оригинальная аудиодорожка: английский
Режиссер: Стив Карр / Steve Carr
В ролях: Эдди Мёрфи, Стив Зан, Джефф Гарлин, Реджина Кинг, Анжелика Хьюстон, Кевин Нилон, Джонатан Кац, Шиван Фэллон, Лиза Эдельштейн, Лейси Чаберт...
Описание: Чарли и Фила увольняют с работы в крупной корпорации. Теперь им самим придётся сидеть со своими сыновьями, так как оплачивать счета дорогостоящего детского центра уже не на что. Промучившись пару недель со своими отпрысками, папаши так увлекаются этим делом, что решают поставить дело на деловые рельсы и открывают новый центр дневного пребывания для детей.
Чарли и Филл находят всё новые и новые нетрадиционные и забавные способы воспитательного воздействия на малышей, и центр «Дежурный папа» становится всё более популярным. Почувствовав жёсткое соперничество со стороны усатых няней, директриса дорогого детского центра решает выжить конкурентов-новичков из бизнеса.
Доп. информация:
Дубляж с DVD9.
Многоголоска с раздачи alenavova.
Перевод Чадова с раздачи DIABLO93.
Двухголосый перевод и перевод Карповского собраны с чистых голосов.
Работа со звуком - Dreven.
Сэмпл: http://multi-up.com/1058309
Тип релиза: WEB-DL 720p
Контейнер: MKV
Видео: 1280x718 (16:9), 23.976 fps, AVC, ~4076 Kbps, 0.185 bits/pixel
Аудио 1: Russian, 48.0 KHz, AC3, 6 ch, 448 Kbps - Видеосервис
Аудио 2: Russian, 48.0 KHz, AC3, 6 ch, 448 Kbps - Петр Гланц и Инна Королева
Аудио 3: Russian, 48.0 KHz, AC3, 6 ch, 384 Kbps
Аудио 4: Russian, 48.0 KHz, AC3, 6 ch, 448 Kbps - Антон Карповский
Аудио 5: Russian, 48.0 KHz, AC3, 6 ch, 448 Kbps - Михаил Чадов
Аудио 6: English, 48.0 KHz, AC3, 6 ch, 448 Kbps

MediaInfo

General
Unique ID : 210493400741278498013568182072609366827 (0x9E5B8DEA6DD4AD799ECE2E5E9EF4632B)
Complete name : D:\Daddy Day Care. WEB-DL 720p.mkv
Format : Matroska
Format version : Version 4 / Version 2
File size : 4.42 GiB
Duration : 1h 32mn
Overall bit rate : 6 836 Kbps
Movie name :
Encoded date : UTC 2015-07-13 10:58:43
Writing application : mkvmerge v8.1.0 ('Psychedelic Postcard') 64bit
Writing library : libebml v1.3.1 + libmatroska v1.4.2
DURATION : 01:32:30.816000000
NUMBER_OF_FRAMES : 173463
NUMBER_OF_BYTES : 310845696
_STATISTICS_WRITING_APP : mkvmerge v8.1.0 ('Psychedelic Postcard') 64bit
_STATISTICS_WRITING_DATE_UT : 2015-07-13 10:58:43
_STATISTICS_TAGS : BPS DURATION NUMBER_OF_FRAMES NUMBER_OF_BYTES
Video
ID : 1
Format : AVC
Format/Info : Advanced Video Codec
Format profile : High@L3.1
Format settings, CABAC : No
Format settings, ReFrames : 2 frames
Format settings, GOP : N=1
Codec ID : V_MPEG4/ISO/AVC
Duration : 1h 32mn
Bit rate : 4 076 Kbps
Width : 1 280 pixels
Height : 718 pixels
Display aspect ratio : 16:9
Frame rate mode : Constant
Frame rate : 23.976 fps
Color space : YUV
Chroma subsampling : 4:2:0
Bit depth : 8 bits
Scan type : Progressive
Bits/(Pixel*Frame) : 0.185
Stream size : 2.63 GiB (60%)
Language : English
Default : Yes
Forced : No
Color range : Limited
Color primaries : BT.709
Transfer characteristics : BT.709
Matrix coefficients : BT.709
Audio #1
ID : 2
Format : AC-3
Format/Info : Audio Coding 3
Mode extension : CM (complete main)
Format settings, Endianness : Big
Codec ID : A_AC3
Duration : 1h 32mn
Bit rate mode : Constant
Bit rate : 448 Kbps
Channel(s) : 6 channels
Channel positions : Front: L C R, Side: L R, LFE
Sampling rate : 48.0 KHz
Compression mode : Lossy
Stream size : 296 MiB (7%)
Title : Видеосервис
Language : Russian
Default : Yes
Forced : No
Audio #2
ID : 3
Format : AC-3
Format/Info : Audio Coding 3
Mode extension : CM (complete main)
Format settings, Endianness : Big
Codec ID : A_AC3
Duration : 1h 32mn
Bit rate mode : Constant
Bit rate : 448 Kbps
Channel(s) : 6 channels
Channel positions : Front: L C R, Side: L R, LFE
Sampling rate : 48.0 KHz
Compression mode : Lossy
Stream size : 296 MiB (7%)
Title : Петр Гланц и Инна Королева
Language : Russian
Default : No
Forced : No
Audio #3
ID : 4
Format : AC-3
Format/Info : Audio Coding 3
Mode extension : CM (complete main)
Format settings, Endianness : Big
Codec ID : A_AC3
Duration : 1h 32mn
Bit rate mode : Constant
Bit rate : 384 Kbps
Channel(s) : 6 channels
Channel positions : Front: L C R, Side: L R, LFE
Sampling rate : 48.0 KHz
Compression mode : Lossy
Stream size : 254 MiB (6%)
Language : Russian
Default : No
Forced : No
Audio #4
ID : 5
Format : AC-3
Format/Info : Audio Coding 3
Mode extension : CM (complete main)
Format settings, Endianness : Big
Codec ID : A_AC3
Duration : 1h 32mn
Bit rate mode : Constant
Bit rate : 448 Kbps
Channel(s) : 6 channels
Channel positions : Front: L C R, Side: L R, LFE
Sampling rate : 48.0 KHz
Compression mode : Lossy
Stream size : 296 MiB (7%)
Title : Антон Карповский
Language : Russian
Default : No
Forced : No
Audio #5
ID : 6
Format : AC-3
Format/Info : Audio Coding 3
Mode extension : CM (complete main)
Format settings, Endianness : Big
Codec ID : A_AC3
Duration : 1h 32mn
Bit rate mode : Constant
Bit rate : 448 Kbps
Channel(s) : 6 channels
Channel positions : Front: L C R, Side: L R, LFE
Sampling rate : 48.0 KHz
Compression mode : Lossy
Stream size : 296 MiB (7%)
Title : Михаил Чадов
Language : Russian
Default : No
Forced : No
Audio #6
ID : 7
Format : AC-3
Format/Info : Audio Coding 3
Mode extension : CM (complete main)
Format settings, Endianness : Big
Codec ID : A_AC3
Duration : 1h 32mn
Bit rate mode : Constant
Bit rate : 448 Kbps
Channel(s) : 6 channels
Channel positions : Front: L C R, Side: L R, LFE
Sampling rate : 48.0 KHz
Compression mode : Lossy
Stream size : 296 MiB (7%)
Language : English
Default : No
Forced : No
Text #1
ID : 8
Format : UTF-8
Codec ID : S_TEXT/UTF8
Codec ID/Info : UTF-8 Plain Text
Language : Russian
Default : No
Forced : No
Text #2
ID : 9
Format : UTF-8
Codec ID : S_TEXT/UTF8
Codec ID/Info : UTF-8 Plain Text
Language : English
Default : No
Forced : No
Menu
00:00:00.000 : en:Start
00:02:46.000 : en:Charlie Hinton
00:05:07.000 : en:Veggie-O's
00:06:25.000 : en:The Chapman Academy
00:10:38.000 : en:Health Division shutdown
00:12:37.000 : en:Value alternatives
00:20:49.000 : en:Taking a flier on Daddy Day Care
00:22:25.000 : en:Open enrollment
00:25:43.000 : en:The Mission Statement
00:28:08.000 : en:Big Phil with the guitar
00:29:35.000 : en:Sugar time!
00:36:45.000 : en:IT is happening
00:39:53.000 : en:"Let's get ready to RUMBLE!"
00:41:26.000 : en:Dan Kubitz, Child Services
00:46:11.000 : en:The third care provider
00:51:56.000 : en:The focus group
00:53:41.000 : en:"Ballroom Blitz"
00:56:15.000 : en:Pet Day
01:03:03.000 : en:The man of the house
01:05:34.000 : en:"Flash is gone!"
01:07:13.000 : en:Mr. Kubitz' puppet show
01:10:09.000 : en:ROCK FOR DADDY DAY CARE
01:14:27.000 : en:Proposals & propositions
01:16:39.000 : en:The dream is over
01:19:24.000 : en:Cotton Candy Puffs
01:21:57.000 : en:Back in business
01:25:09.000 : en:Six months later
01:28:00.000 : en:End credits & outtakes

Скриншоты


_________________
Показать сообщения:    

Текущее время: Сегодня 18:46

Часовой пояс: GMT



Вы не можете начинать темы
Вы не можете отвечать на сообщения
Вы не можете редактировать свои сообщения
Вы не можете удалять свои сообщения
Вы не можете голосовать в опросах
Вы не можете прикреплять файлы к сообщениям
Вы не можете скачивать файлы