Важное объявление!
У Нас Все раздачи мультитрекерные, при нуле пиров в релизах, можете смело вставать на закачку!
 
Автор Сообщение

HUNTER

Стаж:
4 года 4 месяца
Сообщений:
56755

Репутация: 101

[+] [-]
Вне форума [Профиль] [ЛС]

Девятая сессия / Session 9«Fear Is A Place»
Страна: США
Жанр: ужасы, триллер
Год выпуска: 2001
Продолжительность: 01:40:33
-
Перевод 1: Профессиональный (двухголосый закадровый) Videogram
Перевод 2: Авторский (одноголосый закадровый) Сергей Визгунов
Перевод 3: Авторский (одноголосый закадровый) Юрий Сербин
Cубтитры: русские, английские [Full, SDH]
Оригинальная аудиодорожка: английский
-
Режиссер: Брэд Андерсон / Brad Anderson
В ролях: Дэвид Карузо, Стивен Геведон, Пол Гилфойл, Джош Лукас, Питер Муллан, Брендан Секстон III, Чарли Бродерик, Лонни Фармер, Ларри Фессенден, Джуриан Хьюз
-
Описание: Бригада по уничтожению асбеста получила выгодный контракт на очистку заброшенной психиатрической лечебницы. Лихо взявшись за работу, парни не ожидали, что в мрачных подвалах, заброшенных хранилищах и сырых палатах старой больницы до сих пор жива атмосфера ужаса и ненависти, переполнявшей измученные души больных, которые когда-то жили и умерли здесь...
За несколько дней гнетущая аура этого жуткого места превратит лучших друзей в заклятых врагов и параноиков, ставших жертвами убийственного безумия.
[img]https://rating.kinopoisk.ru/823.gif[/img]
Тип релиза: BDRemux 1080p
Контейнер: MKV
Видео: MPEG-4 AVC / NTSC 16:9 / 1920x1080 (2,35:1) / 28156 kbps / 23,976 fps / 0.566 bit/pixel / High@L4.1
Аудио 1: Russian / Dolby Digital Audio / 5.1 Ch / 48 kHz / 384 kbps / 16 bit / DVO / Videogram
Аудио 2: Russian / Dolby Digital Audio / 5.1 Ch / 48 kHz / 384 kbps / 16 bit / AVO / Сергей Визгунов
Аудио 3: Russian / Dolby Digital Audio / 2.0 Ch / 48 kHz / 224 kbps / 16 bit / AVO / Юрий Сербин
Аудио 4: English / Dolby Digital Audio / 5.1 Ch / 48 kHz / 384 kbps / 16 bit / Original / DVD
Аудио 5: English / DTS-HD Master Audio / 2.0 Ch / 48 kHz / 1558 kbps / 24-bit (DTS Core: 2.0 Ch / 48 kHz / 1509 kbps / 24-bit) / Original / Blu-Ray
Формат субтитров: softsub (SRT)

Примечание

Код:
Русские субтитры набил в Subtitle Workshop 6.0 по таймингам с диска Blu-Ray.

MediaInfo

Код:
Общее
Уникальный идентификатор                 : 175590871367271752976633294888376294314 (0x8419925BC3EBBC9993EAB85E65FD5BAA)
Полное имя                               : N:\BDRemux 1080p\Session 9.2001.BDRemux.1080p.mkv
Формат                                   : Matroska
Версия формата                           : Version 4 / Version 2
Размер файла                             : 21,9 Гбайт
Продолжительность                        : 1 ч. 40 м.
Режим общего битрейта                    : Переменный
Общий поток                              : 31,1 Мбит/сек
Название фильма                          : Release for RuTracker © flaSI-I
Дата кодирования                         : UTC 2016-08-14 17:06:41
Программа кодирования                    : mkvmerge v9.3.1 ('Mask Machine') 64bit
Библиотека кодирования                   : libebml v1.3.4 + libmatroska v1.4.5
Видео
Идентификатор                            : 1
Формат                                   : AVC
Формат/Информация                        : Advanced Video Codec
Профиль формата                          : High@L4.1
Параметр CABAC формата                   : Да
Параметр ReFrames формата                : 4 кадра
Идентификатор кодека                     : V_MPEG4/ISO/AVC
Продолжительность                        : 1 ч. 40 м.
Вид битрейта                             : Переменный
Битрейт                                  : 28,2 Мбит/сек
Максимальный битрейт                     : 34,0 Мбит/сек
Ширина                                   : 1920 пикселей
Высота                                   : 1080 пикселей
Соотношение сторон                       : 16:9
Режим частоты кадров                     : Постоянный
Частота кадров                           : 23,976 (24000/1001) кадра/сек
Цветовое пространство                    : YUV
Субдискретизация насыщенности            : 4:2:0
Битовая глубина                          : 8 бит
Тип развёртки                            : Прогрессивная
Бит/(Пиксели*Кадры)                      : 0.566
Размер потока                            : 19,7 Гбайт (90%)
Язык                                     : English
Default                                  : Да
Forced                                   : Нет
Аудио #1
Идентификатор                            : 2
Формат                                   : AC-3
Формат/Информация                        : Audio Coding 3
Расширение режима                        : CM (complete main)
Параметр Endianness формата              : Big
Идентификатор кодека                     : A_AC3
Продолжительность                        : 1 ч. 40 м.
Вид битрейта                             : Постоянный
Битрейт                                  : 384 Кбит/сек
Каналы                                   : 6 каналов
Расположение каналов                     : Front: L C R, Side: L R, LFE
Частота                                  : 48,0 КГц
Частота кадров                           : 31,250 кадров/сек (1536 spf)
Метод сжатия                             : С потерями
Размер потока                            : 275 Мбайт (1%)
Заголовок                                : DVO
Язык                                     : Russian
Default                                  : Да
Forced                                   : Нет
Аудио #2
Идентификатор                            : 3
Формат                                   : AC-3
Формат/Информация                        : Audio Coding 3
Расширение режима                        : CM (complete main)
Параметр Endianness формата              : Big
Идентификатор кодека                     : A_AC3
Продолжительность                        : 1 ч. 40 м.
Вид битрейта                             : Постоянный
Битрейт                                  : 384 Кбит/сек
Каналы                                   : 6 каналов
Расположение каналов                     : Front: L C R, Side: L R, LFE
Частота                                  : 48,0 КГц
Частота кадров                           : 31,250 кадров/сек (1536 spf)
Метод сжатия                             : С потерями
Размер потока                            : 275 Мбайт (1%)
Заголовок                                : AVO / Сергей Визгунов
Язык                                     : Russian
Default                                  : Нет
Forced                                   : Нет
Аудио #3
Идентификатор                            : 4
Формат                                   : AC-3
Формат/Информация                        : Audio Coding 3
Расширение режима                        : CM (complete main)
Параметр Endianness формата              : Big
Идентификатор кодека                     : A_AC3
Продолжительность                        : 1 ч. 40 м.
Вид битрейта                             : Постоянный
Битрейт                                  : 224 Кбит/сек
Каналы                                   : 2 канала
Расположение каналов                     : Front: L R
Частота                                  : 48,0 КГц
Частота кадров                           : 31,250 кадров/сек (1536 spf)
Метод сжатия                             : С потерями
Размер потока                            : 161 Мбайт (1%)
Заголовок                                : AVO / Юрий Сербин
Язык                                     : Russian
Default                                  : Нет
Forced                                   : Нет
Аудио #4
Идентификатор                            : 5
Формат                                   : AC-3
Формат/Информация                        : Audio Coding 3
Расширение режима                        : CM (complete main)
Параметр Endianness формата              : Big
Идентификатор кодека                     : A_AC3
Продолжительность                        : 1 ч. 40 м.
Вид битрейта                             : Постоянный
Битрейт                                  : 384 Кбит/сек
Каналы                                   : 6 каналов
Расположение каналов                     : Front: L C R, Side: L R, LFE
Частота                                  : 48,0 КГц
Частота кадров                           : 31,250 кадров/сек (1536 spf)
Метод сжатия                             : С потерями
Размер потока                            : 275 Мбайт (1%)
Заголовок                                : Original / DVD
Язык                                     : English
Default                                  : Нет
Forced                                   : Нет
Аудио #5
Идентификатор                            : 6
Формат                                   : DTS
Формат/Информация                        : Digital Theater Systems
Профиль формата                          : MA / Core
Режим                                    : 16
Параметр Endianness формата              : Big
Идентификатор кодека                     : A_DTS
Продолжительность                        : 1 ч. 40 м.
Вид битрейта                             : Переменный / Постоянный
Битрейт                                  : 1652 Кбит/сек / 1509 Кбит/сек
Каналы                                   : 2 канала
Расположение каналов                     : Front: L R
Частота                                  : 48,0 КГц
Частота кадров                           : 93,750 кадра/сек (512 spf)
Битовая глубина                          : 24 бит
Метод сжатия                             : Без потерь / Lossy
Размер потока                            : 1,16 Гбайт (5%)
Заголовок                                : Original / Blu-Ray
Язык                                     : English
Default                                  : Нет
Forced                                   : Нет
Текст #1
Идентификатор                            : 7
Формат                                   : UTF-8
Идентификатор кодека                     : S_TEXT/UTF8
Идентификатор кодека/Информация          : UTF-8 Plain Text
Продолжительность                        : 1 ч. 34 м.
Битрейт                                  : 83 бит/сек
Count of elements                        : 926
Размер потока                            : 58,1 Кбайт (0%)
Заголовок                                : RUSSiAN
Язык                                     : Russian
Default                                  : Нет
Forced                                   : Нет
Текст #2
Идентификатор                            : 8
Формат                                   : UTF-8
Идентификатор кодека                     : S_TEXT/UTF8
Идентификатор кодека/Информация          : UTF-8 Plain Text
Продолжительность                        : 1 ч. 34 м.
Битрейт                                  : 57 бит/сек
Count of elements                        : 1138
Размер потока                            : 39,6 Кбайт (0%)
Заголовок                                : Original
Язык                                     : English
Default                                  : Нет
Forced                                   : Нет
Текст #3
Идентификатор                            : 9
Формат                                   : UTF-8
Идентификатор кодека                     : S_TEXT/UTF8
Идентификатор кодека/Информация          : UTF-8 Plain Text
Продолжительность                        : 1 ч. 36 м.
Битрейт                                  : 63 бит/сек
Count of elements                        : 1295
Размер потока                            : 44,5 Кбайт (0%)
Заголовок                                : Original / SDH
Язык                                     : English
Default                                  : Нет
Forced                                   : Нет
Меню
00:00:00.000                             : en:Opening Credits
00:04:10.208                             : en:Seclusions
00:13:27.056                             : en:The Patricia Willard Case
00:22:09.536                             : en:Evidence
00:29:53.082                             : en:Hank's Discovery
00:43:42.578                             : en:Hank Has a Visitor
00:51:23.789                             : en:Mary Hobbes
01:02:46.804                             : en:Thursday
01:10:14.960                             : en:The Tape
01:18:59.109                             : en:The One Responsible
01:26:01.239                             : en:Wrong Place, Wrong Time
01:36:05.593                             : en:Closing Credits

Скриншоты


_________________
Показать сообщения:    

Текущее время: Сегодня 08:49

Часовой пояс: GMT



Вы не можете начинать темы
Вы не можете отвечать на сообщения
Вы не можете редактировать свои сообщения
Вы не можете удалять свои сообщения
Вы не можете голосовать в опросах
Вы не можете прикреплять файлы к сообщениям
Вы не можете скачивать файлы