Важное объявление!
У Нас Все раздачи мультитрекерные, при нуле пиров в релизах, можете смело вставать на закачку!
 
Автор Сообщение

Karinka

Стаж:
4 года 3 месяца
Сообщений:
50

Репутация: 9

[+] [-]
Вне форума [Профиль] [ЛС]

Девчата
Название: Девчата
Год выхода: 1961
Жанр: Комедия
Режиссер: Юрий Чулюкин
В ролях: Надежда Румянцева, Николай Рыбников, Люсьена Овчинникова, Станислав Хитров, Инна Макарова, Светлана Дружинина, Нина Меньшикова, Николай Погодин, Михаил Пуговкин, Анатолий Адоскин, Виктор Байков, Роман Филиппов, Алексей Крыченков, Петр Кирюткин.
О фильме: В подобных фильмах уже есть такая тайна и такая сила, что очень хочется верить, что в такой сказке кому-то когда-то все же удалось пожить. В этой истории всем хватило по паре и по доле коллективного счастья за фанерными перегородками бараков. Виртуозный актерский альянс, легкий юмор и ставшие впоследствии народными песни обеспечили картине феноменальную популярность, не ослабевающую и в наши дни. Фильм прочно утвердился в списке классических советских кинокомедий и отхватил призы на фестивалях в Эдинбурге, Каннах и Мар-дель-Плата.
Выпущено: МОСФИЛЬМ
Продолжительность: 01:36:03
Перевод: Не требуется
Исходник: Blu-Ray
Качество: BDRip
Формат: MKV
Видео кодек: H.264
Аудио кодек: AC3
Видео: H.264, 2354 Kbps, 23.976 fps, High@L4.1
Звук 1: 48.0 KHz, AC3, 448 kbps, 6 channels
Звук 2: 48.0 KHz, AC3, 448 kbps, 1 channel

MediaInfo

General
Unique ID : 211316165498617960587403033340000984759 (0x9EFA0359A62FC707B489A25B3AB1DEB7)
Complete name : H:BDRip-AVCДевчата (1961).mkv
Format : Matroska
Format version : Version 2
File size : 2.18 GiB
Duration : 1h 36mn
Overall bit rate : 3 252 Kbps
Encoded date : UTC 2012-06-11 13:06:06
Writing application : mkvmerge v5.2.1 ('A Far Off Place') built on Jan 2 2012 23:21:10
Writing library : libebml v1.2.3 + libmatroska v1.3.0
Video
ID : 1
Format : AVC
Format/Info : Advanced Video Codec
Format profile : High@L4.1
Format settings, CABAC : Yes
Format settings, ReFrames : 12 frames
Codec ID : V_MPEG4/ISO/AVC
Duration : 1h 36mn
Bit rate : 2 354 Kbps
Width : 1 000 pixels
Height : 432 pixels
Display aspect ratio : 2.35:1
Frame rate : 23.976 fps
Color space : YUV
Chroma subsampling : 4:2:0
Bit depth : 8 bits
Scan type : Progressive
Bits/(Pixel*Frame) : 0.227
Stream size : 1.54 GiB (70%)
Writing library : x264 core 120 r2164 da19765
Encoding settings : cabac=1 / ref=12 / deblock=1:-2:-2 / analyse=0x3:0x133 / me=hex / subme=8 / psy=1 / psy_rd=1.00:0.15 / mixed_ref=1 / me_range=16 / chroma_me=1 / trellis=1 / 8x8dct=1 / cqm=0 / deadzone=21,11 / fast_pskip=1 / chroma_qp_offset=-3 / threads=4 / sliced_threads=0 / nr=0 / decimate=1 / interlaced=0 / bluray_compat=0 / constrained_intra=0 / bframes=4 / b_pyramid=2 / b_adapt=2 / b_bias=0 / direct=3 / weightb=1 / open_gop=0 / weightp=2 / keyint=230 / keyint_min=23 / scenecut=40 / intra_refresh=0 / rc_lookahead=50 / rc=2pass / mbtree=1 / bitrate=2354 / ratetol=1.0 / qcomp=0.60 / qpmin=0 / qpmax=69 / qpstep=4 / cplxblur=20.0 / qblur=0.5 / vbv_maxrate=50000 / vbv_bufsize=50000 / nal_hrd=none / ip_ratio=1.40 / aq=1:1.00
Language : English
Default : Yes
Forced : No
Color primaries : BT.709-5, BT.1361, IEC 61966-2-4, SMPTE RP177
Transfer characteristics : BT.709-5, BT.1361
Matrix coefficients : BT.709-5, BT.1361, IEC 61966-2-4 709, SMPTE RP177
Audio #1
ID : 2
Format : AC-3
Format/Info : Audio Coding 3
Mode extension : CM (complete main)
Codec ID : A_AC3
Duration : 1h 36mn
Bit rate mode : Constant
Bit rate : 448 Kbps
Channel(s) : 6 channels
Channel positions : Front: L C R, Side: L R, LFE
Sampling rate : 48.0 KHz
Bit depth : 16 bits
Compression mode : Lossy
Stream size : 308 MiB (14%)
Title : 6 channels
Language : Russian
Default : Yes
Forced : No
Audio #2
ID : 3
Format : AC-3
Format/Info : Audio Coding 3
Mode extension : CM (complete main)
Codec ID : A_AC3
Duration : 1h 36mn
Bit rate mode : Constant
Bit rate : 448 Kbps
Channel(s) : 1 channel
Channel positions : Front: C
Sampling rate : 48.0 KHz
Bit depth : 16 bits
Compression mode : Lossy
Stream size : 308 MiB (14%)
Title : 1 channel
Language : Russian
Default : No
Forced : No

Скриншоты



Релиз:

_________________
Молодая, стройная, сексуальная, никого не ищу -просто хвастаюсь!)))))))) ​
Показать сообщения:    

Текущее время: Сегодня 12:16

Часовой пояс: GMT



Вы не можете начинать темы
Вы не можете отвечать на сообщения
Вы не можете редактировать свои сообщения
Вы не можете удалять свои сообщения
Вы не можете голосовать в опросах
Вы не можете прикреплять файлы к сообщениям
Вы не можете скачивать файлы