Важное объявление!
У Нас Все раздачи мультитрекерные, при нуле пиров в релизах, можете смело вставать на закачку!
 
Автор Сообщение

HUNTER

Стаж:
4 года 4 месяца
Сообщений:
56842

Репутация: 101

[+] [-]
Вне форума [Профиль] [ЛС]

-Девушка, которая слишком много знала / La ragazza che sapeva troppo / The Girl Who Knew Too Much-Страна: Италия
Студия: Galatea Film / Coronet s.r.l.
Жанр: триллер, джалло
Год выпуска: 1963
Продолжительность: 01:28:45-Перевод: Профессиональный (многоголосый закадровый) 5-й канал
Перевод 2: Профессиональный (многоголосый закадровый) Film Prestige
Cубтитры: английские
Оригинальная аудиодорожка: итальянский-Режиссер: Марио Бава / Mario Bava
В ролях: Летиция Роман, Джон Сэксон, Валентина Кортезе, Титти Томайно, Луиджи Бонос, Мило Куэсада, Роберт Бьюкэнэн, Марта Мелокко, Густаво Де Нардо, Люсия Модуньо, Джон Бенеди, Франко Моричи, Вирджиния Доро, Данте ДиПаоло, Джим Долен, Адриана Фаччетти, Дэфидд Авар, Тиберио Мурджа, Пегги Натан, Франко Рессель, Джон Стэйси.-Описание: Американская студентка Нора, страстная любительница детективов, отправляется на каникулы в Рим и сразу же попадает в водоворот неприятностей. В аэропорту ей подсовывают контрабанду, тетушка, у которой она должна гостить, умирает, на улице на нее нападают, и, вдобавок ко всему, она видит, как мужчина убивает женщину ножом. Полиция принимает рассказ Норы за галлюцинацию, но вскоре она узнает, что на этом месте и именно так действительно была убита девушка... десять лет назад...-Сэмпл: https://yadi.sk/i/w_zbmTt8qYmmh-Тип релиза: BDRip 720p
Контейнер: MKV
Видео: MPEG-4 AVC Video / ~ 16354 Kbps / 1200x720 (1.67:1) / 23,976 fps / High Profile 4.1
Аудио: Russian Dolby Digital Audio 192 kbps 2.0 / 48 kHz | 5-й канал
Аудио 2: Russian Dolby Digital Audio 192 kbps 2.0 / 48 kHz | Film Prestige
Аудио 3: Italian / FLAC Audio / 2.0 / 48 kHz / 1075 kbps / 24-bit
Формат субтитров: softsub (SRT)

Видеоряд от DON

La ragazza che sapeva troppo (1963)
Technical info
RUNTIME.......: 1h:28m:45sSIZE..........: 10.3 GBVIDEO CODEC...: x264, CRF17.5, L4.1FRAMERATE.....: 23.976 fpsBITRATE.......: Variable ~ 16354 KbpsRESOLUTION....: 1200x720 (1.67:1)AUDIO1........: Italian AAC 2.0 @ 200 KbpsAUDIO2........: English AAC 2.0 @ 62 KbpsSUBTITLES.....: EnglishCHAPTERS......: YesSOURCE........: 1080p GBR Blu-ray AVC LPCM 2.0-ESiR
RELEASE DATE..: 08/03/2015ENCODER.......: MrDelReySource__________________________________________Encode


MI

GeneralUnique ID : 202440822907180234654069116349913679447 (0x984CAF2CFEF457E1A5F37BA0087EC657)Complete name : S:\На хранении\Девушка, которая слишком много знала (1963. La ragazza che sapeva troppo).mkvFormat : MatroskaFormat version : Version 2File size : 11.0 GiBDuration : 1h 28mnOverall bit rate mode : VariableOverall bit rate : 17.8 MbpsMovie name : Release for RuTrackerEncoded date : UTC 2016-03-28 19:49:02Writing application : mkvmerge v4.9.1 ('Ich will') сборка от Jul 11 2011 23:53:15Writing library : libebml v1.2.1 + libmatroska v1.1.1Cover : YesAttachments : Cover.jpg
VideoID : 1Format : AVCFormat/Info : Advanced Video CodecFormat profile : High@L4.1Format settings, CABAC : YesFormat settings, ReFrames : 9 framesCodec ID : V_MPEG4/ISO/AVCDuration : 1h 28mnWidth : 1 200 pixelsHeight : 720 pixelsDisplay aspect ratio : 5:3Frame rate mode : ConstantFrame rate : 23.976 (24000/1001) fpsColor space : YUVChroma subsampling : 4:2:0Bit depth : 8 bitsScan type : ProgressiveTitle : La.ragazza.che.sapeva.troppo.1963.720p.BluRay.AAC2.0.x264-DONWriting library : x264 core 144 r2525kMod 40bb568Encoding settings : cabac=1 / ref=9 / deblock=1:-3:-3 / analyse=0x3:0x133 / me=umh / subme=11 / psy=1 / fade_compensate=0.00 / psy_rd=1.10:0.00 / mixed_ref=1 / me_range=32 / chroma_me=1 / trellis=2 / 8x8dct=1 / cqm=0 / deadzone=21,11 / fast_pskip=0 / chroma_qp_offset=-2 / threads=6 / lookahead_threads=1 / sliced_threads=0 / nr=0 / decimate=0 / interlaced=0 / bluray_compat=0 / constrained_intra=0 / fgo=0 / bframes=10 / b_pyramid=2 / b_adapt=2 / b_bias=0 / direct=3 / weightb=1 / open_gop=0 / weightp=2 / keyint=250 / keyint_min=23 / scenecut=40 / intra_refresh=0 / rc_lookahead=60 / rc=crf / mbtree=0 / crf=17.5000 / qcomp=0.65 / qpmin=0 / qpmax=69 / qpstep=4 / vbv_maxrate=62500 / vbv_bufsize=78125 / crf_max=0.0 / nal_hrd=none / filler=0 / ip_ratio=1.20 / pb_ratio=1.10 / aq=1:0.85Language : EnglishDefault : YesForced : No
Audio #1ID : 2Format : AC-3Format/Info : Audio Coding 3Mode extension : CM (complete main)Format settings, Endianness : BigCodec ID : A_AC3Duration : 1h 28mnBit rate mode : ConstantBit rate : 192 KbpsChannel(s) : 2 channelsChannel positions : Front: L RSampling rate : 48.0 KHzFrame rate : 31.250 fps (1536 spf)Compression mode : LossyStream size : 122 MiB (1%)Title : MVO [5 канал]Language : RussianDefault : YesForced : No
Audio #2ID : 3Format : AC-3Format/Info : Audio Coding 3Mode extension : CM (complete main)Format settings, Endianness : BigCodec ID : A_AC3Duration : 1h 28mnBit rate mode : ConstantBit rate : 192 KbpsChannel(s) : 2 channelsChannel positions : Front: L RSampling rate : 48.0 KHzFrame rate : 31.250 fps (1536 spf)Compression mode : LossyStream size : 122 MiB (1%)Title : MVO [Film Prestige]Language : RussianDefault : NoForced : No
Audio #3ID : 4Format : FLACFormat/Info : Free Lossless Audio CodecCodec ID : A_FLACDuration : 1h 28mnBit rate mode : VariableChannel(s) : 2 channelsChannel positions : Front: L RSampling rate : 48.0 KHzBit depth : 24 bitsWriting library : libFLAC 1.2.1 (UTC 2007-09-17)Language : ItalianDefault : NoForced : No
TextID : 5Format : UTF-8Codec ID : S_TEXT/UTF8Codec ID/Info : UTF-8 Plain TextLanguage : EnglishDefault : NoForced : No
Menu00:00:00.000 : en:00:00:00.00000:07:01.880 : en:00:07:01.88000:13:23.553 : en:00:13:23.55300:21:07.475 : en:00:21:07.47500:27:22.850 : en:00:27:22.85000:33:23.126 : en:00:33:23.12600:40:52.784 : en:00:40:52.78400:49:18.164 : en:00:49:18.16400:54:39.485 : en:00:54:39.48501:03:51.494 : en:01:03:51.49401:09:18.946 : en:01:09:18.94601:15:51.672 : en:01:15:51.672

Скриншоты



Зеркало


Цитата:
Цитата:

  • Релиз
  • Здесь представлена итальянская версия фильма. На BD также была американская, она 6,5 минут длиннее, но на нее нет переводов. Подогнать с итальянской версии на американскую нереально - многие сцены были пересняты, к тому же все имеющиеся озвучки наложены на итальянскую дорогу, а американская есть только на английском. Evil Eye - название американской версии.
  • Русский звук с [url=viewtopic.php?t=3243689]этой[/url] раздачи.
  • Сохранены оригинальные чаптеры как на Blu-ray.

_________________
Показать сообщения:    

Текущее время: Сегодня 15:46

Часовой пояс: GMT



Вы не можете начинать темы
Вы не можете отвечать на сообщения
Вы не можете редактировать свои сообщения
Вы не можете удалять свои сообщения
Вы не можете голосовать в опросах
Вы не можете прикреплять файлы к сообщениям
Вы не можете скачивать файлы