Важное объявление!
У Нас Все раздачи мультитрекерные, при нуле пиров в релизах, можете смело вставать на закачку!
 
Автор Сообщение

HUNTER

Стаж:
4 года 4 месяца
Сообщений:
56765

Репутация: 101

[+] [-]
Вне форума [Профиль] [ЛС]

Девственница / Virgin
Страна: США
Студия: Full Moon Films
Жанр: драма
Год выпуска: 2003
Продолжительность: 01:57:03
Перевод: Профессиональный (многоголосый закадровый)
Cубтитры: нет
Оригинальная аудиодорожка: английский
Режиссер: Дебора Кампмейер / Deborah Kampmeier
В ролях: Элизабет Мосс, Дафна Рубин-Вега, Сокорро Сантьяго, Питер Герети, Робин Райт Пенн, Стефани Гашет, Сэм Райли, Чарльз Сокаридс, Кристофер Вайнкуп, Стивен Брайан Джонс, Патриция Эрнандес, Роберт Берлин, Тиффани Эванс, Долли Уильямс
Описание: Американская девушка Джессика родилась в семье баптистов и живет в городе, где большинство жителей исповедуют эту веру. Религиозность уживается у неё со злоупотреблением спиртным, кислотой, и отягощается клептоманией. Однажды, разгорячённая сексуальными фантазиями, спиртным и таблетками, Джессика, чтобы успокоиться, направляется погулять в лес, где теряет сознание. Придя в себя она не помнит, что с ней происходило. Позже ей снится сон, что у неё будет ребёнок от Христа. Когда же она обнаруживает, что беременна, то твёрдо уверена в том, что сон оказался вещим и остаётся одна против всего религиозно-фанатичного городка. Где грань чуда и наркоманского бреда; добра и зла? Фильм об иллюзиях, о вере, о предательстве, о раскаянии.
Мать Джесси сыграла великолепная Робин Райт Пенн, которая к тому же является исполнительным продюсером картины.
Бонусы: нет
Меню: нет

Сэмпл: http://multi-up.com/971270
Тип релиза: DVD5
Контейнер: DVD-Video
Видео: NTSC 4:3 (720x480(0.518)) MPEG Video, 29,970 кадр/сек, 5367 Кбит/сек
Аудио: Russian (Dolby AC3, 2ch) 192 Кбит/сек, 48,0 КГц
Аудио 2: English (Dolby AC3, 2ch) 192 Кбит/сек, 48,0 КГц
Доп. информация
Диск из частной коллекции. Дистрибьютор неизвестен.
DVDInfo
Title:
Size: 4.24 Gb ( 4 450 988 KBytes ) - DVD-5
Enabled regions: 1, 2, 3, 4, 5, 6, 7, 8
VTS_01 :
Play Length: 01:57:03
Video: NTSC 4:3 (720x480) VBR
Audio:
Russian (Dolby AC3, 2 ch)
English (Dolby AC3, 2 ch)
Menu Video:
NTSC 4:3 (720x480) VBR
Auto Pan&Scan, Auto Letterboxed
Menu Language Unit :
Chapter (PTT) Menu
MediaInfo
General
Complete name : D:\odds\Девственница\VIDEO_TS\VTS_01_1.VOB
Format : MPEG-PS
File size : 1 024 MiB
Duration : 24mn 23s
Overall bit rate : 5 868 Kbps
Video
ID : 224 (0xE0)
Format : MPEG Video
Format version : Version 2
Format profile : Main@Main
Format settings, BVOP : Yes
Format settings, Matrix : Default
Duration : 24mn 23s
Bit rate mode : Variable
Bit rate : 5 367 Kbps
Nominal bit rate : 9 800 Kbps
Width : 720 pixels
Height : 480 pixels
Display aspect ratio : 4:3
Frame rate : 29.970 fps
Standard : NTSC
Color space : YUV
Chroma subsampling : 4:2:0
Bit depth : 8 bits
Scan type : Interlaced
Scan order : Top Field First
Bits/(Pixel*Frame) : 0.518
Stream size : 937 MiB (91%)
Audio #1
ID : 128 (0x80)
Format : AC-3
Format/Info : Audio Coding 3
Mode extension : CM (complete main)
Duration : 24mn 23s
Bit rate mode : Constant
Bit rate : 192 Kbps
Channel(s) : 2 channels
Channel positions : Front: L R
Sampling rate : 48.0 KHz
Stream size : 33.5 MiB (3%)
Audio #2
ID : 129 (0x81)
Format : AC-3
Format/Info : Audio Coding 3
Mode extension : CM (complete main)
Duration : 24mn 23s
Bit rate mode : Constant
Bit rate : 192 Kbps
Channel(s) : 2 channels
Channel positions : Front: L R
Sampling rate : 48.0 KHz
Stream size : 33.5 MiB (3%)
Menu
Скриншоты

_________________
Показать сообщения:    

Текущее время: Сегодня 03:22

Часовой пояс: GMT



Вы не можете начинать темы
Вы не можете отвечать на сообщения
Вы не можете редактировать свои сообщения
Вы не можете удалять свои сообщения
Вы не можете голосовать в опросах
Вы не можете прикреплять файлы к сообщениям
Вы не можете скачивать файлы