Важное объявление!
У Нас Все раздачи мультитрекерные, при нуле пиров в релизах, можете смело вставать на закачку!
 
Автор Сообщение

HUNTER

Стаж:
4 года 4 месяца
Сообщений:
56853

Репутация: 101

[+] [-]
Вне форума [Профиль] [ЛС]

Девочка-волшебница Мадока (Фильм 2) / Mahou Shoujo Madoka Magica: Eien no Monogatari
Год выпуска: 2012
Страна: Япония
Жанр: махо-сёдзё, ужасы, драма
Тип: Movie
Продолжительность: 1ч. 51мин.
Русские субтитры: есть (отдельным файлом, формат .ass, перевод - Nesitach, Stan WarHammer)
Хардсаб: Нет-Режиссер: Симбо Акиюки
Студия: Shaft
Описание: Второй фильм из трилогии. Является пересказом событий последних четырёх серий сериала.
Качество: Blu-Ray Remux
Формат: MKV
Видео кодек: AVC
Аудио кодек: DTS
Видео: 1920x1080 (16:9) 23,976 fps ~33.6 Mbps 8bit
Аудио:
Jap 1 DTS, 48000Hz, ~768 kbps 2ch
Jap 2 DTS, 48000Hz, ~1509 kbps 5.1ch
Чаптеры присутствуют.
MediaInfo
Общее
Уникальный идентификатор : 192621555159107254266466635404483260989 (0x90E98FE5E2E3259097424EAD8780723D)
Полное имя : M:\incoming\Mahou Shoujo Madoka Magica Movie 2\[anti-raws]Mahou Shoujo Madoka Magica Movie 2 Eien no Monogatari[BDRemux].mkv
Формат : Matroska
Версия формата : Version 4 / Version 2
Размер файла : 28,5 Гбайт
Продолжительность : 1 ч. 51 м.
Режим общего битрейта : Переменный
Общий поток : 36,7 Мбит/сек
Дата кодирования : UTC 2014-05-14 17:08:05
Программа кодирования : mkvmerge v6.9.1 ('Blue Panther') 64bit built on Apr 18 2014 18:23:38
Библиотека кодирования : libebml v1.3.0 + libmatroska v1.4.1
Видео
Идентификатор : 3
Формат : AVC
Формат/Информация : Advanced Video Codec
Профиль формата : High@L4.1
Параметр CABAC формата : Да
Параметр ReFrames формата : 4 кадра
Идентификатор кодека : V_MPEG4/ISO/AVC
Продолжительность : 1 ч. 51 м.
Вид битрейта : Переменный
Битрейт : 33,7 Мбит/сек
Максимальный битрейт : 37,0 Мбит/сек
Ширина : 1920 пикселей
Высота : 1080 пикселей
Соотношение сторон : 16:9
Режим частоты кадров : Постоянный
Частота кадров : 23,976 кадра/сек
Цветовое пространство : YUV
Субдискретизация насыщенности : 4:2:0
Битовая глубина : 8 бит
Тип развёртки : Прогрессивная
Бит/(Пиксели*Кадры) : 0.678
Размер потока : 26,2 Гбайт (92%)
Default : Нет
Forced : Нет
Аудио #1
Идентификатор : 1
Формат : DTS
Формат/Информация : Digital Theater Systems
Режим : 16
Параметр Endianness формата : Big
Идентификатор кодека : A_DTS
Продолжительность : 1 ч. 51 м.
Вид битрейта : Постоянный
Битрейт : 768 Кбит/сек
Каналы : 2 канала
Расположение каналов : Front: L R
Частота : 48,0 КГц
Битовая глубина : 24 бит
Метод сжатия : С потерями
Размер потока : 610 Мбайт (2%)
Заголовок : DTS 2.0
Язык : Japanese
Default : Да
Forced : Нет
Аудио #2
Идентификатор : 2
Формат : DTS
Формат/Информация : Digital Theater Systems
Режим : 16
Параметр Endianness формата : Big
Идентификатор кодека : A_DTS
Продолжительность : 1 ч. 51 м.
Вид битрейта : Постоянный
Битрейт : 1509 Кбит/сек
Каналы : 6 каналов
Расположение каналов : Front: L C R, Side: L R, LFE
Частота : 48,0 КГц
Битовая глубина : 24 бит
Метод сжатия : С потерями
Размер потока : 1,17 Гбайт (4%)
Заголовок : DTS 5.1
Язык : Japanese
Default : Нет
Forced : Нет
Меню
00:00:00.000 : en:00:00:00.000
00:04:09.458 : en:00:04:09.458
00:05:48.557 : en:00:05:48.557
00:08:25.422 : en:00:08:25.422
00:14:16.189 : en:00:14:16.189
00:17:54.532 : en:00:17:54.532
00:27:03.622 : en:00:27:03.622
00:30:02.384 : en:00:30:02.384
00:36:59.008 : en:00:36:59.008
00:40:09.991 : en:00:40:09.991
00:46:52.852 : en:00:46:52.852
00:49:20.541 : en:00:49:20.541
00:54:57.294 : en:00:54:57.294
00:56:29.386 : en:00:56:29.386
00:58:43.687 : en:00:58:43.687
01:05:34.806 : en:01:05:34.806
01:09:23.493 : en:01:09:23.493
01:13:13.180 : en:01:13:13.180
01:17:01.158 : en:01:17:01.158
01:21:54.910 : en:01:21:54.910
01:26:35.816 : en:01:26:35.816
01:32:41.931 : en:01:32:41.931
01:37:14.620 : en:01:37:14.620
01:39:15.032 : en:01:39:15.032
01:41:52.315 : en:01:41:52.315
01:43:26.033 : en:01:43:26.033
01:44:33.017 : en:01:44:33.017
01:49:28.562 : en:01:49:28.562
СкриншотыОтличия от существующих раздач

_________________
Показать сообщения:    

Текущее время: Сегодня 10:41

Часовой пояс: GMT



Вы не можете начинать темы
Вы не можете отвечать на сообщения
Вы не можете редактировать свои сообщения
Вы не можете удалять свои сообщения
Вы не можете голосовать в опросах
Вы не можете прикреплять файлы к сообщениям
Вы не можете скачивать файлы
Наши партнеры: интернет магазин Ивановского трикотажа textilla.ru