Важное объявление!
У Нас Все раздачи мультитрекерные, при нуле пиров в релизах, можете смело вставать на закачку!
 
Автор Сообщение

HUNTER

Стаж:
4 года 4 месяца
Сообщений:
56808

Репутация: 101

[+] [-]
Вне форума [Профиль] [ЛС]

Двойняшки / Сестры близнецы / De Tweeling / Twin Sisters
Страна: Нидерланды, Люксембург
Жанр: драма
Год выпуска: 2002
Продолжительность: 02:16:59
Перевод: Одноголосый закадровый
Cубтитры: русские, английские, нидерландские
Оригинальная аудиодорожка: нидерландский
Режиссер: Бен Сомбогаарт / Ben Sombogaart
В ролях: Сина Ричардт (Anna Bamberg, young), Джулия Коопманс (Lotte Bamberg, young), Текла Рютен (Young Lotte), Надя Уль (Young Anna), Эллен Фогель (Old Lotte), Гудрун Окрас (Old Anna), Бетти Шюрман (Mother Rockanje), Jaap Spijkers (Father Rockanje), Роман Книжка (Martin), Маргарита Бройх (Martha), Инго Науёкс (Uncle Heinrich Bamberg), Барбара Ауэр (Charlotte)
Описание: Лента снята по роману-бестселлеру Тессы де Лоо "Близнецы".
После смерти родителей две сестрёнки разлучены. Лотта растёт в Нидерландах, Анна - в Берлине. Два совершенно разных мира. На исходе Второй Мировой войны они отыскивают друг друга, что приносит лишь разочарования. Анна выходит за офицера СС, Мартина, погибающего затем в боях, а Давид - жених Лотты, еврей, замучен в концлагере. Пятьдесят лет спустя престарелые Анна и Лотта сталкиваются на курорте. Возможно ли воссоединение сестёр?
Nominated for 1 Oscar. Another 4 wins & 7 nominations
Доп. информация: К BDRip 720p, скачанному с забугорного трекера, добавлена русская звуковая дорожка с этой раздачи, спасибо Vitautus.
Используемый софт: MKVtool, Subtitle Workshop, BeSweet, Sony Vegas 10
Сэмпл: http://multi-up.com/1084618
Тип релиза: BDRip 720p
Контейнер: MKV
Видео: AVC, 7607 Kbps, 1280 x 690, 24,000 fps
Аудио 1: Russian (Dolby AC3, 2 ch), 48 kHz, 192 kbps
Аудио 2: Dutch DTS / 5.1 / 48 kHz / 1509 kbps / 24-bit
Формат субтитров: UTF-8, PGS

MediaInfo

Matroska
Версия формата : Version 2
Размер файла : 9,09 Гбайт
Продолжительность : 2 ч. 16 м.
Общий поток : 9497 Кбит/сек
Дата кодирования : UTC 2016-01-16 12:19:27
Программа кодирования : mkvmerge v7.5.0 ('Glass Culture') 32bit built on Jan 4 2015 16:37:25
Библиотека кодирования : libebml v1.3.1 + libmatroska v1.4.2
DURATION : 02:10:52.769000000
NUMBER_OF_FRAMES : 922
NUMBER_OF_BYTES : 31837
_STATISTICS_WRITING_APP : mkvmerge v7.5.0 ('Glass Culture') 32bit built on Jan 4 2015 16:37:25
_STATISTICS_WRITING_DATE_UTC : 2016-01-16 12:19:27
_STATISTICS_TAGS : BPS DURATION NUMBER_OF_FRAMES NUMBER_OF_BYTES
Видео
Идентификатор : 1
Формат : AVC
Формат/Информация : Advanced Video Codec
Профиль формата : High@L4.1
Параметр CABAC формата : Да
Параметр ReFrames формата : 9 кадров
Идентификатор кодека : V_MPEG4/ISO/AVC
Продолжительность : 2 ч. 16 м.
Битрейт : 7607 Кбит/сек
Ширина : 1280 пикселей
Высота : 690 пикселей
Соотношение сторон : 1,85:1
Режим частоты кадров : Постоянный
Частота кадров : 24,000 кадра/сек
Цветовое пространство : YUV
Субдискретизация насыщенности : 4:2:0
Битовая глубина : 8 бит
Тип развёртки : Прогрессивная
Бит/(Пиксели*Кадры) : 0.359
Размер потока : 7,28 Гбайт (80%)
Библиотека кодирования : x264 core 146 r2538kMod 121396c
Настройки программы : cabac=1 / ref=9 / deblock=1:-3:-3 / analyse=0x3:0x133 / me=umh / subme=10 / psy=1 / fade_compensate=0.00 / psy_rd=1.00:0.00 / mixed_ref=1 / me_range=24 / chroma_me=1 / trellis=2 / 8x8dct=1 / cqm=0 / deadzone=21,11 / fast_pskip=0 / chroma_qp_offset=-2 / threads=12 / lookahead_threads=3 / sliced_threads=0 / nr=0 / decimate=0 / interlaced=0 / bluray_compat=0 / constrained_intra=0 / fgo=0 / bframes=11 / b_pyramid=2 / b_adapt=2 / b_bias=0 / direct=3 / weightb=1 / open_gop=0 / weightp=2 / keyint=250 / keyint_min=24 / scenecut=40 / intra_refresh=0 / rc_lookahead=60 / rc=crf / mbtree=0 / crf=17.5000 / qcomp=0.60 / qpmin=0 / qpmax=69 / qpstep=4 / vbv_maxrate=62500 / vbv_bufsize=78125 / crf_max=0.0 / nal_hrd=none / filler=0 / ip_ratio=1.30 / pb_ratio=1.20 / aq=3:0.65
Язык : Russian
Default : Да
Forced : Нет
Коэффициенты матрицы : BT.709
colour_range : Limited
_STATISTICS_WRITING_APP : mkvmerge v7.5.0 ('Glass Culture') 32bit built on Jan 4 2015 16:37:25
_STATISTICS_WRITING_DATE_UTC : 2016-01-16 12:19:27
_STATISTICS_TAGS : BPS DURATION NUMBER_OF_FRAMES NUMBER_OF_BYTES
DURATION : 02:16:59.417000000
NUMBER_OF_FRAMES : 197266
NUMBER_OF_BYTES : 7996429968
Аудио #1
Идентификатор : 2
Формат : AC-3
Формат/Информация : Audio Coding 3
Расширение режима : CM (complete main)
Параметр Endianness формата : Big
Идентификатор кодека : A_AC3
Продолжительность : 2 ч. 16 м.
Вид битрейта : Постоянный
Битрейт : 192 Кбит/сек
Каналы : 2 канала
Расположение каналов : Front: L R
Частота : 48,0 КГц
Битовая глубина : 16 бит
Метод сжатия : С потерями
Размер потока : 188 Мбайт (2%)
Язык : Russian
Default : Да
Forced : Нет
Аудио #2
Идентификатор : 3
Формат : DTS
Формат/Информация : Digital Theater Systems
Режим : 16
Параметр Endianness формата : Big
Идентификатор кодека : A_DTS
Продолжительность : 2 ч. 16 м.
Вид битрейта : Постоянный
Битрейт : 1509 Кбит/сек
Каналы : 6 каналов
Расположение каналов : Front: L C R, Side: L R, LFE
Частота : 48,0 КГц
Битовая глубина : 24 бит
Метод сжатия : С потерями
Размер потока : 1,44 Гбайт (16%)
Язык : Dutch
Default : Нет
Forced : Нет
Текст #1
Идентификатор : 4
Формат : UTF-8
Идентификатор кодека : S_TEXT/UTF8
Идентификатор кодека/Информация : UTF-8 Plain Text
Язык : English
Default : Нет
Forced : Нет
Текст #2
Идентификатор : 5
Формат : PGS
Режим смешивания : zlib
Идентификатор кодека : S_HDMV/PGS
Идентификатор кодека/Информация : The same subtitle format used on BDs/HD-DVDs
Язык : English
Default : Нет
Forced : Нет
Текст #3
Идентификатор : 6
Формат : PGS
Режим смешивания : zlib
Идентификатор кодека : S_HDMV/PGS
Идентификатор кодека/Информация : The same subtitle format used on BDs/HD-DVDs
Язык : Dutch
Default : Нет
Forced : Нет
Меню
00:00:00.000 : en:00:00:00.000
00:10:43.000 : en:00:10:43.000
00:20:03.000 : en:00:20:03.000
00:30:03.000 : en:00:30:03.000
00:40:35.000 : en:00:40:35.000
00:50:35.000 : en:00:50:35.000
01:00:17.000 : en:01:00:17.000
01:10:17.000 : en:01:10:17.000
01:10:31.000 : en:01:10:31.000
01:20:57.000 : en:01:20:57.000
01:30:31.000 : en:01:30:31.000
01:40:31.000 : en:01:40:31.000
01:50:31.000 : en:01:50:31.000
02:00:31.000 : en:02:00:31.000
02:11:46.000 : en:02:11:46.000

Скриншоты


_________________
Показать сообщения:    

Текущее время: Сегодня 09:55

Часовой пояс: GMT



Вы не можете начинать темы
Вы не можете отвечать на сообщения
Вы не можете редактировать свои сообщения
Вы не можете удалять свои сообщения
Вы не можете голосовать в опросах
Вы не можете прикреплять файлы к сообщениям
Вы не можете скачивать файлы