Важное объявление!
У Нас Все раздачи мультитрекерные, при нуле пиров в релизах, можете смело вставать на закачку!
 
Автор Сообщение

HUNTER

Стаж:
4 года 4 месяца
Сообщений:
56842

Репутация: 101

[+] [-]
Вне форума [Профиль] [ЛС]

Двойной просчет / Double Jeopardy
Страна: США, Канада, Германия (ФРГ)
Студия: Paramount Pictures
Жанр: Триллер, криминал, детектив
Год выпуска: 1999
Продолжительность: 01:45:16
Перевод 1: Авторский (одноголосый закадровый) АНДРЕЙ ГАВРИЛОВ
Перевод 2: Профессиональный (многоголосый закадровый)
Cубтитры: русские, английские
Оригинальная аудиодорожка: английский
Режиссер: Брюс Бересфорд / Bruce Beresford
В ролях: Томми Ли Джоунс /Tommy Lee Jones/, Эшли Джадд /Ashley Judd/, Майкл Гэстон /Michael Gaston/, Дэйв Хэйгер /Dave Hager/, Даниэль Лапэйн /Daniel Lapaine/, Брюс Гринвуд /Bruce Greenwood/, Аннабет Гиш /Annabeth Gish/, Рома Маффиа /Roma Maffia/, Джей Бразо /Jay Brazeau/, Дэвиния МакФэдден /Davenia McFadden/, Бетси Брэнтли /Betsy Brantley/
Описание: Либби Парсонс (Эшли Джадд) любит своего мужа (Гринвуд), у них маленький сын. Живут они в чудном месте, любящий муж дарит жене красавицу-яхту, о которой она давно мечтала. Оставив сына у лучшей подруги, Либби отправляется с мужем провести несколько дней на яхте. Они занимаются любовью. Когда Либби просыпается, то с ужасом видит на постели кровь. Она идет по следу, который обрывается у борта, и на палубе находит окровавленный нож. Естественно, берет его в руки, и в таком виде ее замечают в луче прожектора с катера береговой охраны. Несколько дней шли поиски, но тела так и не нашли. Выясняется, что за четыре месяца до убийства супруги застраховали свои жизни на сумму в 2 млн. долларов. Оказалось, что муж задолжал двум своим деловым партнерам весьма приличные деньги. Если бы они предъявили иск, то у семьи бы ничего не осталось. А так, вроде как, Либби остается свободной и богатой. Но ее обвиняют в убийстве мужа. И после короткого суда Либби долгие годы проводит в тюрьме, где узнает, что муж ее жив-здоров, но живет под другим именем, женат на ее лучшей подруге, которую она попросила усыновить сына и оформила управляющей фондом, куда были вложены все деньги от страховки. От сокамерниц Либби также узнала, что в Америке повторно за одно и то же преступление не судят. Если она еще раз, теперь по-настоящему, убьет мужа, ей за это ничего не будет, потому как свой срок она уже отбыла. Через шесть лет Либби выпускают досрочно за хорошее поведение, но над нею устанавливают полицейский надзор. Нетрудно догадаться, что Либби ищет мужа и сына. Вряд ли она забыла и о лучшей подруге. Она нарушает режим досрочного освобождения и попадается. Полицейский (Томми Ли Джоунс) должен доставить ее обратно в тюрьму отбывать дополнительный срок. Но Либби сбегает, и полицейский отправляется за ней, наводя по собственной инициативе справки об ее исчезнувшем муже...
Очень хороший фильм в своем жанре, отличная режиссура и прекрасные актеры. (Иванов М.)
--------------------------------------------------------------------------------
Оператор: Питер Джеймс /Peter James/
Сценарист: Даглас С. Кук /Douglas S. Cook/, Дэвид Уайзберг /David Weisberg/
Продюсер: Леонард Голдберг /Leonard Goldberg/
Композитор: Норманд Корбейл /Normand Corbeil/
Художник: Хауард Каммингс /Howard Cummings/
Костюмы: Руди Диллон /Rudy Dillon/, Линда Басс /Linda Bass/
Кастинг: Дебора Акила /Deborah Aquila/, Сара Холли Финн /Sarah Halley Finn/
--------------------------------------------------
КИНОПОИСК. RU
РЕЙТИНГ - 7.562 оценки: 7 531
6,3/10 from 47 683 users
--------------------------------------------------
Доп. информация: Видеоряд >>> Double Jeopardy 1999 720p WEB DL H264 HDCLUB
--------------------------------------------------
СЭМПЛ
--------------------------------------------------
Примечание: Скорость маленькая 50 kb/c, но раздаю круглосуточно.
--------------------------------------------------
Тип релиза: WEB-DL 720p
Контейнер: MKV
Видео: H.264; 1280x534; 23.976 fps; ~ 3 933 Kbps; 0.240 Bits/Pixel
Аудио 1: Russian - 48 kHz, AC3 Dolby Digital, Front: L C R, Side: L R, LFE, ~ 448 kbps - Андрей Гаврилов
Аудио 2: Russian - 48 kHz, AC3 Dolby Digital, Front: L C R, Side: L R, LFE, ~ 448 kbps - MVO
Аудио 3: English - 48 kHz, AC3 Dolby Digital, Front: L C R, Side: L R, LFE, ~ 448 kbps- Original
Формат субтитров: Все (*UTF-8)
MediaInfo
General
Complete name : F:\EXCLUZIVE=19\ДВОЙНОЙ ПРОСЧЕТ=DOUBLE JEOPARDY 1999\DOUBLE JEOPARDY 1999.HDCLUB\Double.Jeopardy.1999.720p.WEB-DL.HDCLUB.mkv
Format : Matroska
File size : 3.96 GiB
Duration : 1h 45mn
Overall bit rate : 5 384 Kbps
Movie name : Double Jeopardy (1999) - Release for HDCLUB
Encoded date : UTC 2014-05-07 13:21:18
Writing application : mkvmerge v3.3.0 ('Language') built on Mar 24 2010 14:59:24
Writing library : libebml v0.8.0 + libmatroska v0.9.0
Video
ID : 1
Format : AVC
Format/Info : Advanced Video Codec
Format profile : Main@L3.1
Format settings, CABAC : No
Format settings, ReFrames : 2 frames
Muxing mode : Container profile=Unknown@3.1
Codec ID : V_MPEG4/ISO/AVC
Duration : 1h 45mn
Bit rate : 3 933 Kbps
Width : 1 280 pixels
Height : 534 pixels
Display aspect ratio : 2.35:1
Frame rate : 23.976 fps
Color space : YUV
Chroma subsampling : 4:2:0
Bit depth : 8 bits
Scan type : Progressive
Bits/(Pixel*Frame) : 0.240
Stream size : 2.89 GiB (73%)
Title : Double Jeopardy (1999) - Release for HDCLUB
Language : English
Color primaries : BT.709-5, BT.1361, IEC 61966-2-4, SMPTE RP177
Transfer characteristics : BT.709-5, BT.1361
Matrix coefficients : BT.709-5, BT.1361, IEC 61966-2-4 709, SMPTE RP177
Audio #1
ID : 2
Format : AC-3
Format/Info : Audio Coding 3
Mode extension : CM (complete main)
Codec ID : A_AC3
Duration : 1h 45mn
Bit rate mode : Constant
Bit rate : 448 Kbps
Channel(s) : 6 channels
Channel positions : Front: L C R, Side: L R, LFE
Sampling rate : 48.0 KHz
Stream size : 337 MiB (8%)
Title : AVO Гаврилов @ AC3 6ch. @ 448 kbps
Language : Russian
Audio #2
ID : 3
Format : AC-3
Format/Info : Audio Coding 3
Mode extension : CM (complete main)
Codec ID : A_AC3
Duration : 1h 45mn
Bit rate mode : Constant
Bit rate : 448 Kbps
Channel(s) : 6 channels
Channel positions : Front: L C R, Side: L R, LFE
Sampling rate : 48.0 KHz
Stream size : 337 MiB (8%)
Title : MVO @ AC3 6ch. @ 448 kbps
Language : Russian
Audio #3
ID : 4
Format : AC-3
Format/Info : Audio Coding 3
Mode extension : CM (complete main)
Codec ID : A_AC3
Duration : 1h 45mn
Bit rate mode : Constant
Bit rate : 448 Kbps
Channel(s) : 6 channels
Channel positions : Front: L C R, Side: L R, LFE
Sampling rate : 48.0 KHz
Stream size : 337 MiB (8%)
Title : Original @ AC3 6ch. @ 448 kbps
Language : English
Text #1
ID : 5
Format : ASS
Codec ID : S_TEXT/ASS
Codec ID/Info : Advanced Sub Station Alpha
Title : (* UTF-8)
Language : Russian
Text #2
ID : 6
Format : UTF-8
Codec ID : S_TEXT/UTF8
Codec ID/Info : UTF-8 Plain Text
Title : (* UTF-8)
Language : English
Menu
00:00:00.000 : en:The Good Life
00:06:32.000 : en:The Morning Star
00:13:26.000 : en:Testimony
00:20:50.000 : en:Using Her Head
00:27:36.000 : en:A Christmas Present
00:32:31.000 : en:Conditional Parole
00:40:25.000 : en:School Records
00:46:15.000 : en:"Don't Go Anywhere."
00:52:39.000 : en:Angela Ryder
00:58:46.000 : en:Art Search
01:06:20.000 : en:Bachelor Auction
01:15:23.000 : en:The Red Umbrella
01:21:17.000 : en:Tourist Trap
01:29:09.000 : en:Number 3
01:36:22.000 : en:Matty
01:40:32.000 : en:End Credits
СкриншотыМои раздачи фильмов в Авторском переводе

_________________
Показать сообщения:    

Текущее время: Сегодня 12:16

Часовой пояс: GMT



Вы не можете начинать темы
Вы не можете отвечать на сообщения
Вы не можете редактировать свои сообщения
Вы не можете удалять свои сообщения
Вы не можете голосовать в опросах
Вы не можете прикреплять файлы к сообщениям
Вы не можете скачивать файлы