Важное объявление!
У Нас Все раздачи мультитрекерные, при нуле пиров в релизах, можете смело вставать на закачку!
 
Автор Сообщение

HUNTER

Стаж:
4 года 4 месяца
Сообщений:
56734

Репутация: 101

[+] [-]
Вне форума [Профиль] [ЛС]

Двое на Манхеттене / Двое в Манхэттене / Deux hommes dans Manhattan--
Страна: Франция
Студия: Alter Films, Belfort Films
Жанр: Драма, детектив, триллер, нуар
Год выпуска: 1959
Продолжительность: 1:24:30
Перевод: Одноголосый закадровый Юрий Бибиков
Cубтитры: русские calexico, VeraM, английские
Оригинальная аудиодорожка: французский
Режиссер: Жан-Пьер Мельвиль / Jean-Pierre Melville
В ролях: Жан-Пьер Мельвиль, Пьер Грассе, Кристина Эд, Джинджер Холл, Колетт Флери, Моника Хеннесси, Гленда Ли, Жан Даркан, Пола Дехелли, Глория Кайсер, Билли Бек-Описание: В Нью-Йорке исчезает французский дипломат. Журналисту Моро, как знатоку злачных мест ночного Манхеттена, шеф поручает его найти. С собой Моро берет приятеля, фотографа Дельма. Проститутки, актрисы, певицы, только опыт и цинизм поможет отыскать в этом водовороте след пропавшего человека. Ночь обещает быть долгой, но Манхеттен не спит, огни горят, из каждого кабака доносится джаз.-Сэмпл: https://yadi.sk/d/0B-37I1WcsPZp
Тип релиза: BDRip 720p by mfcorrea
Контейнер: MKV
Видео: x264/AVC, 960x720 at 23,976 fps, 6500 kbps
Аудио: Russian: 48 kHz, AC3, 2.0 ch, 256 kbps
Аудио 2: French/English: 48 kHz, AC3, 2.0 ch, 640 kbps
Формат субтитров: softsub (SRT)

MediaInfo

Формат : Matroska
Версия формата : Version 4 / Version 2
Размер файла : 4,37 Гбайт
Продолжительность : 1 ч. 24 м.
Общий поток : 7401 Кбит/сек
Дата кодирования : UTC 2014-11-22 19:43:17
Программа кодирования : mkvmerge v7.3.0 ('Nouages') 32bit built on Oct 22 2014 18:44:01
Библиотека кодирования : libebml v1.3.0 + libmatroska v1.4.1
DURATION : 01:20:06.836000000
NUMBER_OF_FRAMES : 433
NUMBER_OF_BYTES : 1456931
_STATISTICS_WRITING_APP : mkvmerge v7.3.0 ('Nouages') 32bit built on Oct 22 2014 18:44:01
_STATISTICS_WRITING_DATE_UTC : 2014-11-22 19:43:17
_STATISTICS_TAGS : BPS DURATION NUMBER_OF_FRAMES NUMBER_OF_BYTES
Видео
Идентификатор : 1
Формат : AVC
Формат/Информация : Advanced Video Codec
Профиль формата : High@L4.0
Параметр CABAC формата : Да
Параметр ReFrames формата : 8 кадров
Идентификатор кодека : V_MPEG4/ISO/AVC
Продолжительность : 1 ч. 24 м.
Битрейт : 6500 Кбит/сек
Ширина : 960 пикселей
Высота : 720 пикселей
Соотношение сторон : 4:3
Частота кадров : 23,976 кадра/сек
Цветовое пространство : YUV
Субдискретизация насыщенности : 4:2:0
Битовая глубина : 8 бит
Тип развёртки : Прогрессивная
Бит/(Пиксели*Кадры) : 0.392
Размер потока : 3,75 Гбайт (86%)
Библиотека кодирования : x264 core 130 r2273 b3065e6
Настройки программы : cabac=1 / ref=8 / deblock=1:-1:-1 / analyse=0x3:0x133 / me=umh / subme=9 / psy=1 / psy_rd=1.00:0.15 / mixed_ref=1 / me_range=16 / chroma_me=1 / trellis=2 / 8x8dct=1 / cqm=0 / deadzone=21,11 / fast_pskip=1 / chroma_qp_offset=-3 / threads=18 / lookahead_threads=1 / sliced_threads=0 / nr=0 / decimate=1 / interlaced=0 / bluray_compat=0 / constrained_intra=0 / bframes=3 / b_pyramid=2 / b_adapt=2 / b_bias=0 / direct=3 / weightb=1 / open_gop=0 / weightp=2 / keyint=240 / keyint_min=24 / scenecut=40 / intra_refresh=0 / rc_lookahead=60 / rc=2pass / mbtree=1 / bitrate=6500 / ratetol=1.0 / qcomp=0.60 / qpmin=0 / qpmax=69 / qpstep=4 / cplxblur=20.0 / qblur=0.5 / vbv_maxrate=25000 / vbv_bufsize=31250 / nal_hrd=none / ip_ratio=1.40 / aq=1:1.00
Язык : English
Основные цвета : BT.709-5, BT.1361, IEC 61966-2-4, SMPTE RP177
Характеристики трансфера : BT.709-5, BT.1361
Коэффициенты матрицы : BT.709-5, BT.1361, IEC 61966-2-4 709, SMPTE RP177
Аудио #1
Идентификатор : 2
Формат : AC-3
Формат/Информация : Audio Coding 3
Расширение режима : CM (complete main)
Идентификатор кодека : A_AC3
Продолжительность : 1 ч. 24 м.
Вид битрейта : Постоянный
Битрейт : 256 Кбит/сек
Каналы : 2 канала
Расположение каналов : Front: L R
Частота : 48,0 КГц
Битовая глубина : 16 бит
Метод сжатия : С потерями
Размер потока : 155 Мбайт (3%)
Язык : Russian
Аудио #2
Идентификатор : 3
Формат : AC-3
Формат/Информация : Audio Coding 3
Расширение режима : CM (complete main)
Идентификатор кодека : A_AC3
Продолжительность : 1 ч. 24 м.
Вид битрейта : Постоянный
Битрейт : 640 Кбит/сек
Каналы : 2 канала
Расположение каналов : Front: L R
Частота : 48,0 КГц
Битовая глубина : 16 бит
Метод сжатия : С потерями
Размер потока : 387 Мбайт (9%)
Язык : French
Текст #1
Идентификатор : 4
Формат : UTF-8
Идентификатор кодека : S_TEXT/UTF8
Идентификатор кодека/Информация : UTF-8 Plain Text
Язык : Russian
Текст #2
Идентификатор : 5
Формат : VobSub
Режим смешивания : zlib
Идентификатор кодека : S_VOBSUB
Идентификатор кодека/Информация : The same subtitle format used on DVDs
Язык : English
Меню
00:00:00.000 : en:Chapter 1
00:10:53.736 : en:Chapter 2
00:21:34.459 : en:Chapter 3
00:30:25.865 : en:Chapter 4
00:41:13.220 : en:Chapter 5
00:53:06.516 : en:Chapter 6
01:02:34.876 : en:Chapter 7
01:09:43.345 : en:Chapter 8
01:18:51.560 : en:Chapter 9

Скриншоты


_________________
Показать сообщения:    

Текущее время: Сегодня 14:51

Часовой пояс: GMT



Вы не можете начинать темы
Вы не можете отвечать на сообщения
Вы не можете редактировать свои сообщения
Вы не можете удалять свои сообщения
Вы не можете голосовать в опросах
Вы не можете прикреплять файлы к сообщениям
Вы не можете скачивать файлы