Важное объявление!
У Нас Все раздачи мультитрекерные, при нуле пиров в релизах, можете смело вставать на закачку!
 
Автор Сообщение

димитри37

Стаж:
3 года 8 месяцев
Сообщений:
1237

Репутация: 127

[+] [-]
Вне форума [Профиль] [ЛС]

Две разорившиеся девочки / 2 Broke Girls
СЕЗОН 2
Год выпуска: 2012
Страна: США
Жанр: Комедия
Серии: 01-24 из 24
Продолжительность: 24~21мин.
Перевод: Любительский многоголосый закадровый
Русские субтитры: нет
Субтитры: Отсутствуют
Режиссёр: Джеймс Берроус /James Burrows/-В ролях: Кэт Деннингс /Kat Dennings/ (Макс), Бет Берс /Beth Behrs/ (Кэролайн), Мэтью Мой /Matthew Moy/(Хан Ли), Джонатан Кайт /Jonathan Kite/ (Олег), Ник Зано /Nick Zano/ (Джонни), Гаррет Моррис /Garrett Morris/ (Эрл)-Описание: Комедия о двух девушках, которые работают официантками в забегаловке, и которых объединяет общая мечта — открыть успешный бизнес. Конечно, как только они найдут деньги для этого. Колкая, знающая жизнь Макс работает на двух работах только чтобы свести концы с концами. Одна из этих работ — ночная смена в ретро-закусочной Вильямсбург. Утонченная Кэролайн — бывшая принцесса с трастовым фондом, которой настолько не повезло, что волей-неволей пришлось стать официанткой.
Сначала Макс воспринимает Кэролайн как очередную неумёху, которую Макс придется прикрывать, но к ее удивлению, Кэролайн не оказалась пустышкой. Когда Кэролайн узнала, что Макс печет потрясающие кексики, она сразу видит в этом потенциальный источник прибыли, но для бизнеса нужны деньги. Ну а пока девушки откладывают чаевые, им придется работать в закусочной вместе с Олегом, чрезмерно любвеобильным русским поваром; Эрлом, 75-летним крутым перцем, который работает на кассе; и Ханом Ли, новым владельцем закусочной. Две девушки без денег живут в дорогом городе, работают вместе, и, возможно, нашли секретный ингредиент успеха.-Доп. информация:
Перевод: Helvarielle(1), liana(2-...)
Закадровое озвучание: liana, Трина Дубовицкая, schemer
Видео рип.: OgreS2009
Качество: HDTVRip
Формат: AVI
Видео кодек: XviD
Аудио кодек: MP3
Видео: XviD 1.2.1, 720x400, 23.976 fps, ~1400 kb/s, 0.201 bit/pixel
Аудио: MP3, 48000 Hz, 2 ch, ~128 Kbps-

MI

General
Format : AVI
Format/Info : Audio Video Interleave
File size : 235 MiB
Duration : 21mn 21s
Overall bit rate : 1 540 Kbps
Writing application : VirtualDubMod 1.5.10.2 (build 2540/release)
Writing library : VirtualDubMod build 2540/release
Video
ID : 0
Format : MPEG-4 Visual
Format profile : Advanced Simple@L5
Format settings, BVOP : 1
Format settings, QPel : No
Format settings, GMC : No warppoints
Format settings, Matrix : Default (MPEG)
Codec ID : XVID
Codec ID/Hint : XviD
Duration : 21mn 21s
Bit rate : 1 403 Kbps
Width : 720 pixels
Height : 400 pixels
Display aspect ratio : 16:9
Frame rate : 23.976 fps
Color space : YUV
Chroma subsampling : 4:2:0
Bit depth : 8 bits
Scan type : Progressive
Compression mode : Lossy
Bits/(Pixel*Frame) : 0.203
Stream size : 214 MiB (91%)
Writing library : XviD 1.2.1 (UTC 2008-12-04)
Audio
ID : 1
Format : MPEG Audio
Format version : Version 1
Format profile : Layer 3
Mode : Joint stereo
Mode extension : MS Stereo
Codec ID : 55
Codec ID/Hint : MP3
Duration : 21mn 21s
Bit rate mode : Constant
Bit rate : 128 Kbps
Channel(s) : 2 channels
Sampling rate : 48.0 KHz
Compression mode : Lossy
Stream size : 19.5 MiB (8%)
Alignment : Split accross interleaves
Interleave, duration : 42 ms (1.00 video frame)
Interleave, preload duration : 500 ms
Writing library : LAME3.98.2
-

Скриншоты

-

Внимание! Раздача ведётся путём добавления новых серий

Внимание! Раздача ведётся путём добавления новых серий; при каждом добавлении создётся новый торрент. Чтобы начать докачку новой серии, пользователям необходимо сделать следующее:
(1) остановить скачивание,
(2) удалить старый торрент у себя из клиента (старые серии удалять не надо),
(3) скачать новый торрент и запустить его у себя в клиенте вместо старого, при этом указать клиенту путь в старую папку куда и должно происходить скачивание новых серий.
Ваш клиент при этом должен произвести хеширование (проверку) старой папки (если не производит сам - помогите ему сделать это), и будет докачивать только те серии которых у вас ещё нет. Старые серии при этом не удаляются, а продолжают раздаваться!
Eсли вы уже удалили старые серии, то предотвратить повторную закачку старых серий можно, отжав галочку в соответсвующих местах при запуске нового торрента. По возможности, желательно не удалять старые серии как можно дольше чтобы релизёр не столько продолжал раздавать старые серии, а смог сконцентрироваться на новых.
-
Показать сообщения:    

Текущее время: Сегодня 07:42

Часовой пояс: GMT



Вы не можете начинать темы
Вы не можете отвечать на сообщения
Вы не можете редактировать свои сообщения
Вы не можете удалять свои сообщения
Вы не можете голосовать в опросах
Вы не можете прикреплять файлы к сообщениям
Вы не можете скачивать файлы