Важное объявление!
У Нас Все раздачи мультитрекерные, при нуле пиров в релизах, можете смело вставать на закачку!
 
Автор Сообщение

HUNTER

Стаж:
4 года 4 месяца
Сообщений:
56772

Репутация: 101

[+] [-]
Вне форума [Профиль] [ЛС]

Две женщины и "Тигр"
Год выпуска: 2013
Страна: Россия, ГТРК "Культура", кинокомпания "Дебют"
Жанр: Документальный, история, хроника
Продолжительность: 00:38:53
Перевод: Не требуется
Русские субтитры: нет
Режиссер: Юлия Герра
Рип от:
Описание: За всю войну на фронтах Великой Отечественной работало около 400 военных корреспондентов. Женщин-фотокорреспондентов среди них - единицы. Этот фильм о двух из них: Наталье Боде и Галине Санько. На Курской дуге, каждой из них предстояло выполнить ответственное задание - сделать снимок, ценой которого могла быть жизнь. Этот фильм - взгляд на войну через призму объектива женщин-фотографов. В фильме использованы уникальные фотографии Натальи Боде и Галины Санько. В фильме принимают участие: дочь и внук Н. Боде - Наталья Долматовская и Василий Кутьин, фотографы Лев Шерстенников и Юрий Кривоносов, историки Валерий Замулин, Ольга Кушнер и Владимир Зеленский, участники Курской битвы.
качество: SATRip
формат: AVI
Видео: 704х464 (1.51:1), 25 fps, XviD, ~1496 kbps avg, 0.18 bit/pixel
Аудио: 48 kHz, MPEG Layer 3, 2 ch, ~128 kbps avg

MediaInfo

General
Complete name : D:\Документалка\dve_jenshiny_i_tigr.avi
Format : AVI
Format/Info : Audio Video Interleave
File size : 454 MiB
Duration : 38mn 53s
Overall bit rate : 1 634 Kbps
Writing application : VirtualDubMod 1.5.10.3 | www.virtualdub-fr.org || (build 2550/release)
Writing library : VirtualDubMod build 2550/release
Video
ID : 0
Format : MPEG-4 Visual
Format profile : Advanced Simple@L5
Format settings, BVOP : Yes
Format settings, QPel : No
Format settings, GMC : No warppoints
Format settings, Matrix : Default (MPEG)
Codec ID : XVID
Codec ID/Hint : XviD
Duration : 38mn 53s
Bit rate : 1 496 Kbps
Width : 704 pixels
Height : 464 pixels
Display aspect ratio : 3:2
Frame rate : 25.000 fps
Color space : YUV
Chroma subsampling : 4:2:0
Bit depth : 8 bits
Scan type : Progressive
Bits/(Pixel*Frame) : 0.183
Stream size : 416 MiB (92%)
Writing library : XviD 1.2.1 (UTC 2008-12-04)
Audio
ID : 1
Format : MPEG Audio
Format version : Version 1
Format profile : Layer 3
Codec ID : 55
Codec ID/Hint : MP3
Duration : 38mn 53s
Bit rate mode : Constant
Bit rate : 128 Kbps
Channel(s) : 2 channels
Sampling rate : 48.0 KHz
Stream size : 35.6 MiB (8%)
Alignment : Aligned on interleaves
Interleave, duration : 40 ms (1.00 video frame)
Interleave, preload duration : 504 ms
Writing library : LAME3.99r
Encoding settings : -m s -V 4 -q 2 -lowpass 17 -b 128

Скриншоты




_________________
Показать сообщения:    

Текущее время: Сегодня 19:33

Часовой пояс: GMT



Вы не можете начинать темы
Вы не можете отвечать на сообщения
Вы не можете редактировать свои сообщения
Вы не можете удалять свои сообщения
Вы не можете голосовать в опросах
Вы не можете прикреплять файлы к сообщениям
Вы не можете скачивать файлы