Важное объявление!
У Нас Все раздачи мультитрекерные, при нуле пиров в релизах, можете смело вставать на закачку!
 
Автор Сообщение

димитри37

Стаж:
3 года 9 месяцев
Сообщений:
1237

Репутация: 127

[+] [-]
Вне форума [Профиль] [ЛС]

Два дня в Нью-Йорке / 2 Days in New York
Оригинальное название: 2 Days in New York
Название: Два дня в Нью-Йорке
Страна: Франция, Германия, Бельгия
Жанр: комедия
Год выпуска: 2012
Продолжительность: 01:35:46
Перевод: Одноголосый закадровый
Cубтитры: нет
Режиссер: Жюли Дельпи / Julie Delpy
В ролях: Крис Рок, Жюли Дельпи, Альберт Дельпи, Алексия Ландо, Александр Наон, Кейт Бёртон, Дилан Бейкер, Даниэль Брюль, Тален Рут Райли, Оуэн Шипман
Описание: Марион, счастливо живущая с Мингусом в их нью-йоркской квартире, нашла все, что ей было так необходимо: отношения, свой дом, успешную карьеру и саму себя. Но все ее благополучие оказывается в опасности, когда ее отец, сестра и экс-бойфренд решили "заглянуть" к ним с Магнусом в гости из Франции...


Качество видео: HDRip
Формат видео: AVI
Видео: XviD, 720x384, 23.976 fps, ~1723 Kbit/s
Аудио: AC3 Dolby Digital, 48 Hz, (6 ch) , 448 kbit/s

MediaInfo

Общее
Полное имя : D:\Dva.dnya.v.New.Yorke_2012.HDRip.avi
Формат : AVI
Формат/Информация : Audio Video Interleave
Размер файла : 1,46 Гбайт
Продолжительность : 1 ч. 35 м.
Общий поток : 2181 Кбит/сек
Программа кодирования : VirtualDubMod 1.5.10.2 (build 2540/release)
Библиотека кодирования : VirtualDubMod build 2540/release
Видео
Идентификатор : 0
Формат : MPEG-4 Visual
Профиль формата : Advanced Simple@L5
Параметр BVOP формата : 2
Параметр QPel формата : Нет
Параметр GMC формата : Без точки перехода
Параметр матрицы формата : Default (MPEG)
Идентификатор кодека : XVID
Идентификатор кодека/Подсказка : XviD
Продолжительность : 1 ч. 35 м.
Продолжительность оригинала : 1 ч. 35 м.
Битрейт : 2479 Кбит/сек
Ширина : 720 пикселей
Высота : 384 пикселя
Соотношение сторон : 1,85:1
Частота кадров : 23,976 кадра/сек
Цветовое пространство : YUV
Субдискретизация насыщенности : 4:2:0
Битовая глубина : 8 бит
Тип развёртки : Прогрессивная
Метод сжатия : С потерями
Бит/(Пиксели*Кадры) : 0.374
Размер потока : 1,66 Гбайт
Библиотека кодирования : XviD 1.2.1 (UTC 2008-12-04)
Аудио
Идентификатор : 1
Формат : AC-3
Формат/Информация : Audio Coding 3
Расширение режима : CM (complete main)
Параметр Endianness формата : Big
Идентификатор кодека : 2000
Продолжительность : 1 ч. 35 м.
Продолжительность оригинала : 1 ч. 35 м.
Вид битрейта : Постоянный
Битрейт : 448 Кбит/сек
Каналы : 6 каналов
Расположение каналов : Front: L C R, Side: L R, LFE
Частота : 48,0 КГц
Битовая глубина : 16 бит
Метод сжатия : С потерями
Размер потока : 307 Мбайт (21%)
Выравнивание : Разделение по промежуткам
Продолжительность промежутка : 42 мс. (1,00 видеокадр)
Время предзагрузки промежутка : 500 мс.

Скриншот с названием фильма

Скриншоты

Показать сообщения:    

Текущее время: Сегодня 20:51

Часовой пояс: GMT



Вы не можете начинать темы
Вы не можете отвечать на сообщения
Вы не можете редактировать свои сообщения
Вы не можете удалять свои сообщения
Вы не можете голосовать в опросах
Вы не можете прикреплять файлы к сообщениям
Вы не можете скачивать файлы