Важное объявление!
У Нас Все раздачи мультитрекерные, при нуле пиров в релизах, можете смело вставать на закачку!
 
Автор Сообщение

димитри37

Стаж:
3 года 8 месяцев
Сообщений:
1237

Репутация: 127

[+] [-]
Вне форума [Профиль] [ЛС]

Даю год / I Give It a Year
Страна: Великобритания
Студия: StudioCanal, Translux, Working Title Films
Жанр: мелодрама, комедия
Год выпуска: 2013
Продолжительность: 01:37:25
Перевод: Профессиональный (дублированный)
Cубтитры: нет
Режиссер: Дэн Мазер / Dan Mazer
В ролях: Минни Драйвер, Роуз Бирн, Рейф Сполл, Анна Фэрис, Саймон Бэйкер, Стивен Мерчант, Джейсон Флеминг, Сенем Темиз, Оливия Колман, Анна Скеллерн
Описание: Первый год семейной жизни не всегда проходит так, как думалось до свадьбы. Джош и Нэт – самые счастливые люди на свете, ведь сегодня день их свадьбы. Они стоят у алтаря рука об руку и не замечают вещи, очевидной для всех присутствующих. Дело в том, что на свете трудно найти людей менее подходящих для семейной жизни, чем жених и невеста. Увы, Джош и Нат никак не могут найти общего языка, не умеют идти на компромиссы и совершенно не хотят прислушиваться к мнению друг друга...

Качество видео: BDRip (AVC)
Исходник: Blu-Ray (1080p)
Контейнер: MKV
Видео: MPEG-4 AVC, 1684 kbps , 1024x428 (2.40:1), 23.976 fps, 0.160 bit/pixel
Аудио: русский (AC3, 6 ch, 48 kHz, 448 kbps)
Главы: есть

MediaInfo

General
Unique ID : 201880269637377382753818146547786708376 (0x97E0B9C409D837B8A5870E3983EDF598)
Complete name : D:\Daju.god.2013.x264.BDRip.(AVC).fanatus.mkv
Format : Matroska
Format version : Version 2
File size : 1.45 GiB
Duration : 1h 37mn
Overall bit rate : 2 132 Kbps
Movie name : I Give It a Year (2013) - fanatus
Encoded date : UTC 2013-05-09 19:11:29
Writing application : mkvmerge v3.4.0 ('Rapunzel') сборка от May 15 2010 09:38:20
Writing library : libebml v0.8.0 + libmatroska v0.9.0
Video
ID : 1
Format : AVC
Format/Info : Advanced Video Codec
Format profile : High@L4.1
Format settings, CABAC : Yes
Format settings, ReFrames : 10 frames
Codec ID : V_MPEG4/ISO/AVC
Duration : 1h 37mn
Bit rate : 1 684 Kbps
Width : 1 024 pixels
Height : 428 pixels
Display aspect ratio : 2.40:1
Frame rate : 23.976 fps
Color space : YUV
Chroma subsampling : 4:2:0
Bit depth : 8 bits
Scan type : Progressive
Bits/(Pixel*Frame) : 0.160
Stream size : 1.12 GiB (77%)
Title : I Give It a Year (2013)
Writing library : x264 core 132 r2323+704+51 d571b1c tMod [8-bit@all X86]
Encoding settings : cabac=1 / ref=10 / deblock=1:-2:-2 / analyse=0x3:0x113 / me=umh / subme=11 / psy=1 / fade_compensate=0.00 / psy_rd=1.05:0.00 / mixed_ref=1 / me_range=48 / chroma_me=1 / trellis=2 / 8x8dct=1 / cqm=0 / deadzone=21,11 / fast_pskip=0 / chroma_qp_offset=-2 / threads=16 / lookahead_threads=3 / sliced_threads=0 / nr=0 / decimate=0 / interlaced=0 / bluray_compat=0 / constrained_intra=0 / fgo=0 / bframes=12 / b_pyramid=2 / b_adapt=2 / b_bias=0 / direct=3 / weightb=1 / open_gop=0 / weightp=2 / keyint=240 / keyint_min=23 / scenecut=40 / intra_refresh=0 / rc_lookahead=240 / rc=2pass / mbtree=0 / bitrate=1684 / ratetol=1.0 / qcomp=0.65 / qpmin=0 / qpmax=69 / qpstep=4 / cplxblur=20.0 / qblur=0.5 / vbv_maxrate=50000 / vbv_bufsize=62500 / nal_hrd=none / ip_ratio=1.40 / pb_ratio=1.30 / aq=4:0.90 / aq-sensitivity=10.00 / aq-factor=1.00:1.00:1.00 / aq2=0 / aq3=0
Language : English
Default : Yes
Forced : No
Audio
ID : 2
Format : AC-3
Format/Info : Audio Coding 3
Mode extension : CM (complete main)
Format settings, Endianness : Big
Codec ID : A_AC3
Duration : 1h 37mn
Bit rate mode : Constant
Bit rate : 448 Kbps
Channel(s) : 6 channels
Channel positions : Front: L C R, Side: L R, LFE
Sampling rate : 48.0 KHz
Bit depth : 16 bits
Compression mode : Lossy
Stream size : 312 MiB (21%)
Title : Dub
Language : English
Default : Yes
Forced : No
Menu
00:00:00.000 : :Chapter 01
00:00:33.491 : :Chapter 02
00:10:28.169 : :Chapter 03
00:23:03.882 : :Chapter 04
00:34:08.588 : :Chapter 05
00:47:15.541 : :Chapter 06
01:00:37.091 : :Chapter 07
01:11:31.704 : :Chapter 08
01:20:38.250 : :Chapter 09

x264

x264 [info]: frame I:1463 Avg QP:15.99 size: 63814
x264 [info]: frame P:29848 Avg QP:18.96 size: 19059
x264 [info]: frame B:108842 Avg QP:20.80 size: 5212
x264 [info]: consecutive B-frames: 1.7% 2.3% 5.9% 26.6% 18.8% 35.8% 4.7% 2.0% 0.8% 0.4% 0.3% 0.4% 0.5%
x264 [info]: mb I I16..4: 4.9% 74.1% 21.1%
x264 [info]: mb P I16..4: 0.7% 6.3% 1.3% P16..4: 34.0% 36.8% 13.1% 0.0% 0.0% skip: 7.8%
x264 [info]: mb B I16..4: 0.1% 0.5% 0.1% B16..8: 32.2% 18.0% 3.0% direct: 3.9% skip:42.1% L0:41.1% L1:45.1% BI:13.9%
x264 [info]: 8x8 transform intra:74.6% inter:59.6%
x264 [info]: direct mvs spatial:97.7% temporal:2.3%
x264 [info]: coded y,uvDC,uvAC intra: 86.7% 86.0% 68.8% inter: 20.0% 19.4% 9.6%
x264 [info]: i16 v,h,dc,p: 46% 13% 5% 37%
x264 [info]: i8 v,h,dc,ddl,ddr,vr,hd,vl,hu: 12% 8% 6% 9% 13% 14% 12% 13% 13%
x264 [info]: i4 v,h,dc,ddl,ddr,vr,hd,vl,hu: 15% 9% 6% 8% 13% 14% 12% 11% 11%
x264 [info]: i8c dc,h,v,p: 38% 23% 21% 19%
x264 [info]: Weighted P-Frames: Y:1.9% UV:1.2%
x264 [info]: ref P L0: 46.2% 10.6% 18.7% 6.1% 5.6% 3.7% 3.6% 1.8% 1.9% 1.7% 0.2% 0.0%
x264 [info]: ref B L0: 73.7% 12.0% 5.6% 2.9% 2.0% 1.7% 1.3% 0.6% 0.3%
x264 [info]: ref B L1: 93.2% 6.8%
x264 [info]: kb/s:1682.66
x264 [info]: encoded 140153 frames, 14.26 fps, 1682.66 kb/s, 1172.6 MB

Скриншот c названием фильма

Скриншоты

-
Показать сообщения:    

Текущее время: Сегодня 20:55

Часовой пояс: GMT



Вы не можете начинать темы
Вы не можете отвечать на сообщения
Вы не можете редактировать свои сообщения
Вы не можете удалять свои сообщения
Вы не можете голосовать в опросах
Вы не можете прикреплять файлы к сообщениям
Вы не можете скачивать файлы