Важное объявление!
У Нас Все раздачи мультитрекерные, при нуле пиров в релизах, можете смело вставать на закачку!
 
Автор Сообщение

HUNTER

Стаж:
4 года 4 месяца
Сообщений:
56722

Репутация: 101

[+] [-]
Вне форума [Профиль] [ЛС]

Даффи Дак: Фантастический остров / Daffy Duck's Movie: Fantastic Island
Страна: США
Жанр: мультфильм, комедия, семейный
Продолжительность: 01:18:14
Год выпуска: 1983
Перевод 1: Профессиональный (дублированный) СТС
Перевод 2: Авторский (одноголосый закадровый) Вартан Дохалов
Русские субтитры: английские SRT
Оригинальная дорожка: английский
Режиссёр: Фриц Фрилинг, Чак Джонс, Роберт МакКимсон, Фил Монро / Friz Freleng, Chuck Jones, Robert McKimson, Phil Monroe
Роли озвучивали: Мэл Бланк, Джун Форэй, Лес Тремейн
Описание: Даффи Дак и Спиди Гонзалес попадают на необитаемый остров где находят колодец желаний. Даффи Дак желает сделать из острова курорт и за деньги исполнять желания.

Качество: WEB-DL 1080p
Формат: MKV
Видео: H264, 1476x1076 (1.37:1), 23.976 fps, ~5053 kbps avg, 0.133 bit/pixel
Аудио №1: AC3, 48 kHz, AC3 Dolby Digital, 2 ch, ~192 kbps Дубляж моно
Аудио №2: AC3, 48 kHz, AC3 Dolby Digital, 2 ch, ~192 kbps Дохалов
Аудио №3: AC3, 48 kHz, AC3 Dolby Digital, 2 ch, ~192 kbps Оригинал

Подробные технические данные

Полное имя : Даффи Дак Фантастический остров 1983.mkvФормат : MatroskaВерсия формата : Version 4 / Version 2Размер файла : 3,14 ГбайтПродолжительность : 1 ч. 18 м.Общий поток : 5744 Кбит/секДата кодирования : UTC 2014-09-01 13:37:57Программа кодирования : mkvmerge v7.1.0 ('Good Love') 64bit built on Jul 27 2014 13:06:55Библиотека кодирования : libebml v1.3.0 + libmatroska v1.4.1DURATION : 01:16:14.301000000NUMBER_OF_FRAMES : 1502NUMBER_OF_BYTES : 35502_STATISTICS_WRITING_APP : mkvmerge v7.1.0 ('Good Love') 64bit built on Jul 27 2014 13:06:55_STATISTICS_WRITING_DATE_UTC : 2014-09-01 13:37:57_STATISTICS_TAGS : BPS DURATION NUMBER_OF_FRAMES NUMBER_OF_BYTES
ВидеоИдентификатор : 1Формат : AVCФормат/Информация : Advanced Video CodecПрофиль формата : High@L4.0Параметр CABAC формата : ДаПараметр ReFrames формата : 5 кадровПараметр GOP формата : N=2Идентификатор кодека : V_MPEG4/ISO/AVCПродолжительность : 1 ч. 18 м.Битрейт : 5053 Кбит/секШирина : 1476 пикселейВысота : 1076 пикселейСоотношение сторон : 1,372Режим частоты кадров : ПостоянныйЧастота кадров : 23,976 кадра/секЦветовое пространство : YUVСубдискретизация насыщенности : 4:2:0Битовая глубина : 8 битТип развёртки : ПрогрессивнаяБит/(Пиксели*Кадры) : 0.133Размер потока : 2,76 Гбайт (88%)Default : ДаForced : НетОсновные цвета : BT.709Характеристики трансфера : BT.709Коэффициенты матрицы : BT.709
Аудио #1Идентификатор : 2Формат : AC-3Формат/Информация : Audio Coding 3Расширение режима : CM (complete main)Параметр Endianness формата : BigИдентификатор кодека : A_AC3Продолжительность : 1 ч. 18 м.Вид битрейта : ПостоянныйБитрейт : 192 Кбит/секКаналы : 2 каналаРасположение каналов : Front: L RЧастота : 48,0 КГцБитовая глубина : 16 битМетод сжатия : С потерямиРазмер потока : 107 Мбайт (3%)Заголовок : DubЯзык : RussianDefault : ДаForced : Нет
Аудио #2Идентификатор : 3Формат : AC-3Формат/Информация : Audio Coding 3Расширение режима : CM (complete main)Параметр Endianness формата : BigИдентификатор кодека : A_AC3Продолжительность : 1 ч. 18 м.Вид битрейта : ПостоянныйБитрейт : 192 Кбит/секКаналы : 2 каналаРасположение каналов : Front: L RЧастота : 48,0 КГцБитовая глубина : 16 битМетод сжатия : С потерямиРазмер потока : 107 Мбайт (3%)Заголовок : AVOЯзык : RussianDefault : НетForced : Нет
Аудио #3Идентификатор : 4Формат : AC-3Формат/Информация : Audio Coding 3Расширение режима : CM (complete main)Параметр Endianness формата : BigИдентификатор кодека : A_AC3Продолжительность : 1 ч. 18 м.Вид битрейта : ПостоянныйБитрейт : 192 Кбит/секКаналы : 2 каналаРасположение каналов : Front: L RЧастота : 48,0 КГцБитовая глубина : 16 битМетод сжатия : С потерямиРазмер потока : 107 Мбайт (3%)Заголовок : OrgЯзык : EnglishDefault : НетForced : Нет
ТекстИдентификатор : 5Формат : UTF-8Идентификатор кодека : S_TEXT/UTF8Идентификатор кодека/Информация : UTF-8 Plain TextЯзык : EnglishDefault : НетForced : Нет

Скриншоты


_________________
Показать сообщения:    

Текущее время: Сегодня 13:49

Часовой пояс: GMT



Вы не можете начинать темы
Вы не можете отвечать на сообщения
Вы не можете редактировать свои сообщения
Вы не можете удалять свои сообщения
Вы не можете голосовать в опросах
Вы не можете прикреплять файлы к сообщениям
Вы не можете скачивать файлы