Важное объявление!
У Нас Все раздачи мультитрекерные, при нуле пиров в релизах, можете смело вставать на закачку!
 
Автор Сообщение

HUNTER

Стаж:
4 года 4 месяца
Сообщений:
56734

Репутация: 101

[+] [-]
Вне форума [Профиль] [ЛС]

Давай сделаем это легально / Let's Make It Legal-
Год выпуска: 1951
Страна: США
Жанр: драма, мелодрама, комедия
Продолжительность: 01:16:54
Перевод: Профессиональный (многоголосый закадровый)
Cубтитры: Английские [встроенные, отключаемые]
Оригинальная аудиодорожка: английский-Режиссер: Ричард Сэйл / Richard Sale
В ролях: Клодетт Кольбер, МакДональд Кэри, Захари Скотт, Барбара Бейтс, Роберт Вагнер, Мэрилин Монро, Фрэнк Кэди, Гарри Харви, Бетти Джейн Бауэн, Гарри Денни
Описание:
После 20 лет супружеской жизни Мириам и Хью Халсоуорт решают поставить жирную точку на их браке. Окончательно развод должен вступить в силу в полночь. Но как раз днем, накануне этого знаменательного события, в городе появляется Виктор МакФэрланд, бывший ухажер Мириам, готовый вновь вступить в бой за сердце давней возлюбленной…- -Качество: HDTVRip 720p (HDTV 1080i) /Sample/
Формат: MKV
Видео: AVC, 990x720 (16:9), 23.976 fps, 8565 kbps, 0.491 b/p*f
Аудио #1: Russian, AC3, 2ch, 48kHz, 192Kbps | MVO (1 канал)
Аудио #2: Russian, AC3, 2ch, 48kHz, 192Kbps | MVO (Светла)
Аудио #3: English, AC3, 2ch, 48kHz, 192Kbps | Original
Субтитры: English, SRT, Full

x264 log

Код:
---[Information] [24.12.2015 3:19:41] x264 [info]: frame I:629   Avg QP:21.40  size: 91326
---[Information] [24.12.2015 3:19:41] x264 [info]: frame P:24394 Avg QP:21.70  size: 59564
---[Information] [24.12.2015 3:19:41] x264 [info]: frame B:85585 Avg QP:22.40  size: 40068
---[Information] [24.12.2015 3:19:41] x264 [info]: consecutive B-frames:  0.8%  0.8%  2.4% 49.8% 16.7% 26.5%  2.1%  0.9%
---[Information] [24.12.2015 3:19:41] x264 [info]: mb I  I16..4:  1.3% 89.8%  8.9%
---[Information] [24.12.2015 3:19:41] x264 [info]: mb P  I16..4:  0.2% 24.5%  1.1%  P16..4: 31.9% 24.5% 16.8%  0.5%  0.1%    skip: 0.4%
---[Information] [24.12.2015 3:19:41] x264 [info]: mb B  I16..4:  0.0%  4.1%  0.2%  B16..8: 39.4% 17.6%  6.9%  direct:15.2%  skip:16.7%  L0:34.0% L1:37.9% BI:28.0%
---[Information] [24.12.2015 3:19:41] x264 [info]: 8x8 transform intra:95.0% inter:67.7%
---[Information] [24.12.2015 3:19:41] x264 [info]: coded y,uvDC,uvAC intra: 98.8% 0.0% 0.0% inter: 60.3% 0.0% 0.0%
---[Information] [24.12.2015 3:19:41] x264 [info]: i16 v,h,dc,p: 42% 20% 12% 26%
---[Information] [24.12.2015 3:19:41] x264 [info]: i8 v,h,dc,ddl,ddr,vr,hd,vl,hu: 14%  8% 13%  9% 12% 13% 10% 12% 11%
---[Information] [24.12.2015 3:19:41] x264 [info]: i4 v,h,dc,ddl,ddr,vr,hd,vl,hu: 13%  6%  3%  9% 15% 17% 13% 13% 11%
---[Information] [24.12.2015 3:19:41] x264 [info]: i8c dc,h,v,p: 100%  0%  0%  0%
---[Information] [24.12.2015 3:19:41] x264 [info]: Weighted P-Frames: Y:24.0% UV:0.1%
---[Information] [24.12.2015 3:19:41] x264 [info]: ref P L0: 44.0% 15.1% 14.3%  6.9%  4.6%  4.0%  3.2%  2.2%  1.8%  1.8%  1.6%  0.4%  0.0%
---[Information] [24.12.2015 3:19:41] x264 [info]: ref B L0: 83.2%  7.0%  3.2%  1.6%  1.5%  1.1%  1.1%  0.6%  0.5%  0.2%
---[Information] [24.12.2015 3:19:41] x264 [info]: ref B L1: 95.7%  4.3%
---[Information] [24.12.2015 3:19:41] x264 [info]: kb/s:8565.96

MediaInfo

Код:
General
Unique ID                   : 191751866395776771260653316881379493339 (0x904210EE71D4F3E39D76959DFDD405DB)
Format                      : Matroska
Format version              : Version 4 / Version 2
File size                   : 4.91 GiB
Duration                    : 1h 16mn
Overall bit rate            : 9 143 Kbps
Movie name                  : Давай сделаем это легально / Let's Make It Legal (1951) HDTVRip 720p
Encoded date                : UTC 2015-12-24 22:51:35
Writing application         : mkvmerge v7.9.0 ('Birds') 64bit
Writing library             : libebml v1.3.1 + libmatroska v1.4.2
DURATION                    : 01:14:53.941000000
NUMBER_OF_FRAMES            : 1254
NUMBER_OF_BYTES             : 56821
_STATISTICS_WRITING_APP     : mkvmerge v7.9.0 ('Birds') 64bit
_STATISTICS_WRITING_DATE_UT : 2015-12-24 22:51:35
_STATISTICS_TAGS            : BPS DURATION NUMBER_OF_FRAMES NUMBER_OF_BYTES
Video
ID                          : 1
Format                      : AVC
Format/Info                 : Advanced Video Codec
Format profile              : High@L4.1
Format settings, CABAC      : Yes
Format settings, ReFrames   : 11 frames
Codec ID                    : V_MPEG4/ISO/AVC
Duration                    : 1h 16mn
Bit rate                    : 8 385 Kbps
Width                       : 990 pixels
Height                      : 720 pixels
Display aspect ratio        : 1.375
Frame rate mode             : Constant
Frame rate                  : 23.976 fps
Color space                 : YUV
Chroma subsampling          : 4:2:0
Bit depth                   : 8 bits
Scan type                   : Progressive
Bits/(Pixel*Frame)          : 0.491
Stream size                 : 4.50 GiB (92%)
Title                       : by Wrnr
Writing library             : x264 core 148 r2638kMod 7599210
Encoding settings           : cabac=1 / ref=11 / deblock=1:-3:-2 / analyse=0x3:0x133 / me=umh / subme=10 / psy=1 / fade_compensate=0.00 / psy_rd=1.00:0.05 / mixed_ref=1 / me_range=32 / chroma_me=1 / trellis=2 / 8x8dct=1 / cqm=0 / deadzone=6,6 / fast_pskip=0 / chroma_qp_offset=-3 / threads=3 / lookahead_threads=1 / sliced_threads=0 / nr=0 / decimate=0 / interlaced=0 / bluray_compat=0 / constrained_intra=0 / fgo=0 / bframes=7 / b_pyramid=2 / b_adapt=2 / b_bias=0 / direct=1 / weightb=1 / open_gop=0 / weightp=2 / keyint=240 / keyint_min=23 / scenecut=40 / intra_refresh=0 / rc_lookahead=40 / rc=crf / mbtree=0 / crf=18.5000 / qcomp=0.60 / qpmin=0 / qpmax=69 / qpstep=4 / vbv_maxrate=50000 / vbv_bufsize=62500 / crf_max=0.0 / nal_hrd=none / filler=0 / ip_ratio=1.10 / pb_ratio=1.10 / aq=3:0.85
Language                    : English
Default                     : Yes
Forced                      : No
Color primaries             : BT.709
Transfer characteristics    : BT.709
Matrix coefficients         : BT.709
Color range                 : Limited
Audio #1
ID                          : 2
Format                      : AC-3
Format/Info                 : Audio Coding 3
Mode extension              : CM (complete main)
Format settings, Endianness : Big
Codec ID                    : A_AC3
Duration                    : 1h 16mn
Bit rate mode               : Constant
Bit rate                    : 192 Kbps
Channel(s)                  : 2 channels
Channel positions           : Front: L R
Sampling rate               : 48.0 KHz
Bit depth                   : 16 bits
Compression mode            : Lossy
Stream size                 : 106 MiB (2%)
Title                       : MVO (1 Канал)
Language                    : Russian
Default                     : Yes
Forced                      : No
Audio #2
ID                          : 3
Format                      : AC-3
Format/Info                 : Audio Coding 3
Mode extension              : CM (complete main)
Format settings, Endianness : Big
Codec ID                    : A_AC3
Duration                    : 1h 16mn
Bit rate mode               : Constant
Bit rate                    : 192 Kbps
Channel(s)                  : 2 channels
Channel positions           : Front: L R
Sampling rate               : 48.0 KHz
Bit depth                   : 16 bits
Compression mode            : Lossy
Delay relative to video     : 19ms
Stream size                 : 106 MiB (2%)
Title                       : MVO (Светла)
Language                    : Russian
Default                     : No
Forced                      : No
Audio #3
ID                          : 4
Format                      : AC-3
Format/Info                 : Audio Coding 3
Mode extension              : CM (complete main)
Format settings, Endianness : Big
Codec ID                    : A_AC3
Duration                    : 1h 16mn
Bit rate mode               : Constant
Bit rate                    : 192 Kbps
Channel(s)                  : 2 channels
Channel positions           : Front: L R
Sampling rate               : 48.0 KHz
Bit depth                   : 16 bits
Compression mode            : Lossy
Delay relative to video     : 19ms
Stream size                 : 106 MiB (2%)
Title                       : Original
Language                    : English
Default                     : No
Forced                      : No
Text
ID                          : 5
Format                      : UTF-8
Codec ID                    : S_TEXT/UTF8
Codec ID/Info               : UTF-8 Plain Text
Language                    : English
Default                     : No
Forced                      : No

Сравнение с исходником

Source vs. Rip


Скриншоты


-
  • За скрипт по удалению логотипа первого канала спасибо miha2154
  • За помощь в раздаче karina_vb-Релиз от группы

  • _________________
    Показать сообщения:    

    Текущее время: Сегодня 07:54

    Часовой пояс: GMT



    Вы не можете начинать темы
    Вы не можете отвечать на сообщения
    Вы не можете редактировать свои сообщения
    Вы не можете удалять свои сообщения
    Вы не можете голосовать в опросах
    Вы не можете прикреплять файлы к сообщениям
    Вы не можете скачивать файлы