Важное объявление!
У Нас Все раздачи мультитрекерные, при нуле пиров в релизах, можете смело вставать на закачку!
 
Автор Сообщение

HUNTER

Стаж:
4 года 4 месяца
Сообщений:
56765

Репутация: 101

[+] [-]
Вне форума [Профиль] [ЛС]

Губка Боб в 3D / The SpongeBob Movie: Sponge Out of Water
Страна: США
Жанр: Мультфильм, комедия, приключения, семейный
Продолжительность: 01:32:35
Год выпуска: 2015
Перевод: Профессиональный (дублированный)
Русские субтитры: нет-Режиссёр: Пол Тиббит / Paul Tibbitt
Роли озвучивали: Антонио Бандерас, Том Кенни, Эрик Бауза, Тим Конуэй, Эдди Дизен, Роб Полсен, Кевин Майкл Ричардсон, Эйприл Стюарт, Кри Саммер, Билли Уэст-Описание: «Гу́бка Боб в 3D» (The SpongeBob Movie: Sponge Out of Water) производства Nickelodeon Movies и Paramount Animation— второй полнометражный мультипликационный фильм по мотивам мультсериала «Губка Боб Квадратные Штаны» режиссёра Пола Тиббита. Фильм совмещает игру живых актёров, компьютерную и рисованную анимацию. Является сиквелом фильма 2004 года «Губка Боб Квадратные Штаны»-
Семпл: http://sendfile.su/1125996-Качество: BDRip THE_SPONGEBOB_MOVIE_SPONGE_OUT_OF_WATER_REMUX_HDCLUB
Формат: AVI
Видео: 704x400 (1.76:1), 23,976 fps, XviD build 65 ~1788 kbps avg, 0.265 bit/pixel
Аудио: 48 kHz, AC3 Dolby Digital, 3/2 (L,C,R,l,r) + LFE ch, ~448 kbps avg
Субтитры: отсутствуют

Подробные технические данные

ОбщееПолное имя : F:\Gubka.Bob.v.3D.2015.RUS.BDRip.XviD.AC3.-HQCLUB.aviФормат : AVIФормат/Информация : Audio Video InterleaveРазмер файла : 1,45 ГбайтПродолжительность : 1 ч. 32 м.Общий поток : 2245 Кбит/секНазвание фильма : Губка Боб в 3D / The SpongeBob Movie: Sponge Out of Water (2015) BDRipРежиссёр : sociolog_melvasЖанр : комедия, приключенияПрограмма кодирования : VirtualDubMod 1.5.10.2 (build 2540/release)Правообладатель :Примечание : 07.06.2015
ВидеоИдентификатор : 0Формат : MPEG-4 VisualПрофиль формата : Advanced Simple@L5Параметр BVOP формата : 1Параметр QPel формата : НетПараметр GMC формата : Без точки переходаПараметр матрицы формата : ВыборочнаяИдентификатор кодека : XVIDИдентификатор кодека/Подсказка : XviDПродолжительность : 1 ч. 32 м.Битрейт : 1788 Кбит/секШирина : 704 пикселяВысота : 400 пикселейСоотношение сторон : 16:9Частота кадров : 23,976 кадра/секЦветовое пространство : YUVСубдискретизация насыщенности : 4:2:0Битовая глубина : 8 битТип развёртки : ПрогрессивнаяМетод сжатия : С потерямиБит/(Пиксели*Кадры) : 0.265Размер потока : 1,16 Гбайт (80%)Библиотека кодирования : XviD 65
АудиоИдентификатор : 1Формат : AC-3Формат/Информация : Audio Coding 3Расширение режима : CM (complete main)Параметр Endianness формата : BigИдентификатор кодека : 2000Продолжительность : 1 ч. 32 м.Вид битрейта : ПостоянныйБитрейт : 448 Кбит/секКаналы : 6 каналовРасположение каналов : Front: L C R, Side: L R, LFEЧастота : 48,0 КГцБитовая глубина : 16 битМетод сжатия : С потерямиРазмер потока : 297 Мбайт (20%)Выравнивание : Разделение по промежуткамПродолжительность промежутка : 42 мс. (1,00 видеокадр)Время предзагрузки промежутка : 500 мс.

Скриншоты



_________________
Показать сообщения:    

Текущее время: Сегодня 18:53

Часовой пояс: GMT



Вы не можете начинать темы
Вы не можете отвечать на сообщения
Вы не можете редактировать свои сообщения
Вы не можете удалять свои сообщения
Вы не можете голосовать в опросах
Вы не можете прикреплять файлы к сообщениям
Вы не можете скачивать файлы