Важное объявление!
У Нас Все раздачи мультитрекерные, при нуле пиров в релизах, можете смело вставать на закачку!
 
Автор Сообщение

HUNTER

Стаж:
4 года 4 месяца
Сообщений:
56722

Репутация: 101

[+] [-]
Вне форума [Профиль] [ЛС]

Губка Боб / The SpongeBob Movie: Sponge Out of Water
Страна: США
Жанр: Мультипликация
Продолжительность: 01:32:54
Год выпуска: 2015
Перевод: Профессиональный (дублированный)
Русские субтитры: нет-Режиссёр: Пол Тиббит / Paul Tibbitt
Роли озвучивали: Антонио Бандерас, Том Кенни, Эрик Бауза, Тим Конуэй, Эдди Дизен, Роб Полсен, Кевин Майкл Ричардсон, Эйприл Стюарт, Кри Саммер, Билли Уэст-Описание: Всемирный любимчик со дна океана Губка Боб Квадратные Штаны должен спасти свой глубоководный мир, но для этого ему и его друзьям придется выбраться на сушу и оказаться в нашем.-Качество: BDRip 720p
Формат: MKV
Видео: AVC, 1280x720 (16:9), 23.976 fps, 2 576 Kbps (0.117 bit/pixel)
Аудио 1: AC-3, 48.0 KHz, 6 ch, 384 Kbps, CBR (Russian) [iTunes]
Аудио 2: DTS, 48.0 KHz, 6 ch, 1 510 Kbps, CBR (English)
Субтитры: отсутствуют
Семпл: Забираем тут

Подробные технические данные

ОбщееУникальный идентификатор : 183351258651389130344830072496001352384 (0x89F02AFDF868ACFDA85A8F9F9E9B82C0)Полное имя : The SpongeBob Movie Sponge Out of Water 2015 BDRip 720p.mkvФормат : MatroskaВерсия формата : Version 2Размер файла : 2,89 ГбайтПродолжительность : 1 ч. 32 м.Общий поток : 4469 Кбит/секДата кодирования : UTC 2015-05-20 04:09:35Программа кодирования : mkvmerge v7.9.0 ('Birds') 64bitБиблиотека кодирования : libebml v1.3.1 + libmatroska v1.4.2DURATION : 01:32:36.608000000NUMBER_OF_FRAMES : 173644NUMBER_OF_BYTES : 266717184_STATISTICS_WRITING_APP : mkvmerge v7.9.0 ('Birds') 64bit_STATISTICS_WRITING_DATE_UTC : 2015-05-20 04:09:35_STATISTICS_TAGS : BPS DURATION NUMBER_OF_FRAMES NUMBER_OF_BYTES
ВидеоИдентификатор : 1Формат : AVCФормат/Информация : Advanced Video CodecПрофиль формата : High@L4.1Параметр CABAC формата : ДаПараметр ReFrames формата : 5 кадровИдентификатор кодека : V_MPEG4/ISO/AVCПродолжительность : 1 ч. 32 м.Битрейт : 2576 Кбит/секШирина : 1280 пикселейВысота : 720 пикселейСоотношение сторон : 16:9Режим частоты кадров : ПостоянныйЧастота кадров : 23,976 кадра/секЦветовое пространство : YUVСубдискретизация насыщенности : 4:2:0Битовая глубина : 8 битТип развёртки : ПрогрессивнаяБит/(Пиксели*Кадры) : 0.117Размер потока : 1,61 Гбайт (56%)Библиотека кодирования : x264 core 144 r2525 40bb568Настройки программы : cabac=1 / ref=5 / deblock=1:0:0 / analyse=0x3:0x133 / me=umh / subme=7 / psy=1 / psy_rd=1.00:0.00 / mixed_ref=1 / me_range=16 / chroma_me=1 / trellis=1 / 8x8dct=1 / cqm=0 / deadzone=21,11 / fast_pskip=0 / chroma_qp_offset=-2 / threads=60 / lookahead_threads=5 / sliced_threads=0 / nr=0 / decimate=1 / interlaced=0 / bluray_compat=0 / constrained_intra=0 / bframes=3 / b_pyramid=2 / b_adapt=1 / b_bias=0 / direct=1 / weightb=1 / open_gop=0 / weightp=2 / keyint=250 / keyint_min=23 / scenecut=40 / intra_refresh=0 / rc_lookahead=40 / rc=2pass / mbtree=1 / bitrate=2576 / ratetol=1.0 / qcomp=0.60 / qpmin=0 / qpmax=69 / qpstep=4 / cplxblur=20.0 / qblur=0.5 / ip_ratio=1.40 / aq=1:1.00Язык : EnglishDefault : ДаForced : НетDURATION : 01:32:34.433000000NUMBER_OF_FRAMES : 133173NUMBER_OF_BYTES : 1787820526_STATISTICS_WRITING_APP : mkvmerge v7.9.0 ('Birds') 64bit_STATISTICS_WRITING_DATE_UTC : 2015-05-20 04:09:35_STATISTICS_TAGS : BPS DURATION NUMBER_OF_FRAMES NUMBER_OF_BYTES
Аудио #1Идентификатор : 2Формат : AC-3Формат/Информация : Audio Coding 3Расширение режима : CM (complete main)Параметр Endianness формата : BigИдентификатор кодека : A_AC3Продолжительность : 1 ч. 32 м.Вид битрейта : ПостоянныйБитрейт : 384 Кбит/секКаналы : 6 каналовРасположение каналов : Front: L C R, Side: L R, LFEЧастота : 48,0 КГцБитовая глубина : 16 битМетод сжатия : С потерямиРазмер потока : 254 Мбайт (9%)Язык : RussianDefault : ДаForced : Нет
Аудио #2Идентификатор : 3Формат : DTSФормат/Информация : Digital Theater SystemsРежим : 16Параметр Endianness формата : BigИдентификатор кодека : A_DTSПродолжительность : 1 ч. 32 м.Вид битрейта : ПостоянныйБитрейт : 1509 Кбит/секКаналы : 6 каналовРасположение каналов : Front: L C R, Side: L R, LFEЧастота : 48,0 КГцБитовая глубина : 24 битМетод сжатия : С потерямиРазмер потока : 1000 Мбайт (34%)Язык : EnglishDefault : НетForced : Нет
Меню00:00:00.000 : en:00:00:00.00000:03:40.387 : en:00:03:40.38700:06:22.173 : en:00:06:22.17300:12:29.999 : en:00:12:29.99900:18:21.600 : en:00:18:21.60000:22:52.079 : en:00:22:52.07900:30:14.688 : en:00:30:14.68800:35:37.886 : en:00:35:37.88600:39:50.972 : en:00:39:50.97200:43:13.424 : en:00:43:13.42400:50:54.510 : en:00:50:54.51000:55:16.396 : en:00:55:16.39601:00:03.099 : en:01:00:03.09901:04:19.355 : en:01:04:19.35501:10:16.587 : en:01:10:16.58701:16:20.367 : en:01:16:20.36701:20:29.491 : en:01:20:29.49101:23:30.839 : en:01:23:30.839

Скриншоты



_________________
Показать сообщения:    

Текущее время: Сегодня 15:26

Часовой пояс: GMT



Вы не можете начинать темы
Вы не можете отвечать на сообщения
Вы не можете редактировать свои сообщения
Вы не можете удалять свои сообщения
Вы не можете голосовать в опросах
Вы не можете прикреплять файлы к сообщениям
Вы не можете скачивать файлы