Важное объявление!
У Нас Все раздачи мультитрекерные, при нуле пиров в релизах, можете смело вставать на закачку!
 
Автор Сообщение

HUNTER

Стаж:
4 года 4 месяца
Сообщений:
56722

Репутация: 101

[+] [-]
Вне форума [Профиль] [ЛС]

Грязная работа / Dirty Work-
Год выпуска: 1998
Выпущено: Канада, США
Жанр: комедия
Продолжительность: 01:21:32
Перевод: Профессиональный (двухголосый, закадровый) НТВ
+ Авторский одноголосый С.Визгунов
+ Авторский одноголосый Кашкин
Оригинальная звуковая дорожка: English
Субтитры: English-Режиссер: Боб Сагет / Bob Saget
В ролях: Норм МакДональд, Арти Лэнг, Джек Уорден, Трейлор Ховард, Дон Риклз, Кристофер МакДональд, Чеви Чейз, Брэдли Рейд, Мэтт Стейнберг, Джозеф Сицилия
О фильме: Два друга с детства никому не прощали обиды. Им удавалось очень изобретательно мстить своим обидчикам, устраивая разные гадости. Прошли годы, ребята выросли. Отец одного из них заболел - требовалась пересадка сердца, а для этого нужно было достать 50 тыс. долларов. Так как, кроме гадостей, ребята ничего делать так и не научились, они открыли фирму, чтобы мстить за тех, кто не любил сам делать «грязную работу»...-SbR!
Релиз:
Источник: Грязная работа / Dirty Work (1998) 1080p BD-Remux - Cupper
Тип релиза: BDRip 720p
Формат: MKV
Видео: 1280x692 at 23.976 fps, x264@L4.1 , ~6051 kbps avg
Аудио #01: Russian: 48 kHz, AC3, 2/0 (L,R) ch, ~192 kbps avg |Двухголосый закадровый, НТВ+|
Аудио #02: Russian: 48 kHz, AC3, 3/2 (L,C,R,l,r) + LFE ch, ~640 kbps avg |Одноголосый закадровый, Визгунов|
Аудио #03: Russian: 48 kHz, AC3, 2/0 (L,R) ch, ~192 kbps avg |Одноголосый закадровый, Кашкин|
Аудио #04: English: 48 kHz, AC3, 3/2 (L,C,R,l,r) + LFE ch, ~640 kbps avg
Семпл-
-

mInfo

Полное имя : D:\Dirty.Work.1998.720p.BluRay.3xRus.Eng.HDCLUB-SbR.mkv
Формат : Matroska
Версия формата : Version 4 / Version 2
Размер файла : 4,40 Гбайт
Продолжительность : 1 ч. 21 м.
Общий поток : 7718 Кбит/сек
Дата кодирования : UTC 2016-02-12 06:52:09
Программа кодирования : mkvmerge v8.3.0 ('Over the Horizon') 64bit
Библиотека кодирования : libebml v1.3.1 + libmatroska v1.4.2
Attachements : cover.jpg
DURATION : 01:17:00.495000000
NUMBER_OF_FRAMES : 1700
NUMBER_OF_BYTES : 55198
_STATISTICS_WRITING_APP : mkvmerge v8.3.0 ('Over the Horizon') 64bit
_STATISTICS_WRITING_DATE_UTC : 2016-02-12 06:52:09
_STATISTICS_TAGS : BPS DURATION NUMBER_OF_FRAMES NUMBER_OF_BYTES
Видео
Идентификатор : 1
Формат : AVC
Формат/Информация : Advanced Video Codec
Профиль формата : High@L4.1
Параметр CABAC формата : Да
Параметр ReFrames формата : 9 кадров
Идентификатор кодека : V_MPEG4/ISO/AVC
Продолжительность : 1 ч. 21 м.
Битрейт : 5901 Кбит/сек
Ширина : 1280 пикселей
Высота : 692 пикселя
Соотношение сторон : 1,85:1
Режим частоты кадров : Постоянный
Частота кадров : 23,976 кадра/сек
Цветовое пространство : YUV
Субдискретизация насыщенности : 4:2:0
Битовая глубина : 8 бит
Тип развёртки : Прогрессивная
Бит/(Пиксели*Кадры) : 0.278
Размер потока : 3,36 Гбайт (76%)
Библиотека кодирования : x264 core 148 r2638+53 bb29004 t_mod_Custom [8-bit@all X86_64]
Настройки программы : cabac=1 / ref=9 / deblock=1:-3:-3 / analyse=0x3:0x133 / me=umh / subme=11 / psy=1 / fade_compensate=0.00 / psy_rd=1.00:0.05 / mixed_ref=1 / me_range=24 / chroma_me=1 / trellis=2 / 8x8dct=1 / cqm=0 / deadzone=21,11 / fast_pskip=0 / chroma_qp_offset=-3 / threads=6 / lookahead_threads=1 / sliced_threads=0 / nr=0 / decimate=1 / interlaced=0 / bluray_compat=0 / constrained_intra=0 / fgo=0 / bframes=11 / b_pyramid=2 / b_adapt=2 / b_bias=0 / direct=3 / weightb=1 / open_gop=0 / weightp=2 / keyint=250 / keyint_min=23 / scenecut=40 / intra_refresh=0 / rc_lookahead=60 / rc=crf / mbtree=0 / crf=17.0000 / qcomp=0.65 / qpmin=0:0:0 / qpmax=69:69:69 / qpstep=4 / vbv_maxrate=62500 / vbv_bufsize=78125 / crf_max=0.0 / nal_hrd=none / filler=0 / ip_ratio=1.30 / pb_ratio=1.20 / aq=1:0.65 / aq-sensitivity=10.00 / aq-factor=1.00:1.00:1.00 / aq2=0 / aq3=0
Язык : English
Default : Да
Forced : Нет
Основные цвета : BT.709
Характеристики трансфера : BT.709
Коэффициенты матрицы : BT.709
colour_range : Limited
DURATION : 01:21:32.930000000
NUMBER_OF_FRAMES : 117313
NUMBER_OF_BYTES : 3700934495
_STATISTICS_WRITING_APP : mkvmerge v8.3.0 ('Over the Horizon') 64bit
_STATISTICS_WRITING_DATE_UTC : 2016-02-12 06:52:09
_STATISTICS_TAGS : BPS DURATION NUMBER_OF_FRAMES NUMBER_OF_BYTES
Аудио #1
Идентификатор : 2
Формат : AC-3
Формат/Информация : Audio Coding 3
Расширение режима : CM (complete main)
Параметр Endianness формата : Big
Идентификатор кодека : A_AC3
Продолжительность : 1 ч. 21 м.
Вид битрейта : Постоянный
Битрейт : 192 Кбит/сек
Каналы : 2 канала
Расположение каналов : Front: L R
Частота : 48,0 КГц
Битовая глубина : 16 бит
Метод сжатия : С потерями
Размер потока : 112 Мбайт (2%)
Заголовок : Двухголосый закадровый, НТВ+
Язык : Russian
Default : Да
Forced : Нет
Аудио #2
Идентификатор : 3
Формат : AC-3
Формат/Информация : Audio Coding 3
Расширение режима : CM (complete main)
Параметр Endianness формата : Big
Идентификатор кодека : A_AC3
Продолжительность : 1 ч. 21 м.
Вид битрейта : Постоянный
Битрейт : 640 Кбит/сек
Каналы : 6 каналов
Расположение каналов : Front: L C R, Side: L R, LFE
Частота : 48,0 КГц
Битовая глубина : 16 бит
Метод сжатия : С потерями
Размер потока : 373 Мбайт (8%)
Заголовок : Одноголосый закадровый, Визгунов
Язык : Russian
Default : Нет
Forced : Нет
Аудио #3
Идентификатор : 4
Формат : AC-3
Формат/Информация : Audio Coding 3
Расширение режима : CM (complete main)
Параметр Endianness формата : Big
Идентификатор кодека : A_AC3
Продолжительность : 1 ч. 21 м.
Вид битрейта : Постоянный
Битрейт : 192 Кбит/сек
Каналы : 2 канала
Расположение каналов : Front: L R
Частота : 48,0 КГц
Битовая глубина : 16 бит
Метод сжатия : С потерями
Размер потока : 112 Мбайт (2%)
Заголовок : Одноголосый закадровый, Кашкин
Язык : Russian
Default : Нет
Forced : Нет
Аудио #4
Идентификатор : 5
Формат : AC-3
Формат/Информация : Audio Coding 3
Расширение режима : CM (complete main)
Параметр Endianness формата : Big
Идентификатор кодека : A_AC3
Продолжительность : 1 ч. 21 м.
Вид битрейта : Постоянный
Битрейт : 640 Кбит/сек
Каналы : 6 каналов
Расположение каналов : Front: L C R, Side: L R, LFE
Частота : 48,0 КГц
Битовая глубина : 16 бит
Метод сжатия : С потерями
Размер потока : 373 Мбайт (8%)
Язык : English
Default : Нет
Forced : Нет
Текст #1
Идентификатор : 6
Формат : UTF-8
Идентификатор кодека : S_TEXT/UTF8
Идентификатор кодека/Информация : UTF-8 Plain Text
Язык : English
Default : Нет
Forced : Нет
Текст #2
Идентификатор : 7
Формат : UTF-8
Идентификатор кодека : S_TEXT/UTF8
Идентификатор кодека/Информация : UTF-8 Plain Text
Язык : English
Default : Нет
Forced : Нет
-

_________________
Показать сообщения:    

Текущее время: Сегодня 15:26

Часовой пояс: GMT



Вы не можете начинать темы
Вы не можете отвечать на сообщения
Вы не можете редактировать свои сообщения
Вы не можете удалять свои сообщения
Вы не можете голосовать в опросах
Вы не можете прикреплять файлы к сообщениям
Вы не можете скачивать файлы