Важное объявление!
У Нас Все раздачи мультитрекерные, при нуле пиров в релизах, можете смело вставать на закачку!
 
Автор Сообщение

palych74

Стаж:
4 года 4 месяца
Сообщений:
80

Репутация: 21

[+] [-]
Вне форума [Профиль] [ЛС]

Грэбберсы / Grabbers-
  • Страна: Великобритания, Ирландия, Forward Films, High Treason Productions
  • Жанр:Фантастика, Триллер, Комедия
  • Год выпуска:2012
  • Продолжительность:01:33:49-
  • Перевод:Одноголосый закадровый+ профессиональный (многоголосый) [украинский]
  • Cубтитры: нет
  • Режиссер:Джон Райт / Jon Wright
  • В ролях:Ричард Койл, Рут Брэдли, Рассел Тоуви, Лалор Родди, Дэвид Пирс, Брона Галлахер, Паскаль Скотт, Клелия Мерфи, Луис Демпси, Мишель О’Груэгейн-
  • Описание:
    В центре событий сонная ирландская рыбацкая деревенька, местные жители которой случайно пробудили морских чудовищ, которые выбрались на берег и принялись сосать из них кровь. Выжить удалось лишь тем, кто был пьян и чьей кровью побрезговали чудовища. Среди них оказался сильно пьющий начальник полиции и его подружка. Немного протрезвев они возглавляют выживших в борьбе с монстрами. Правда дело осложняется тем, что люди вынуждены постоянно находиться в состоянии опьянения, чтобы не стать добычей монстров.- -
  • Качество видео:HDRip [рип с BDRip 720p]
  • Формат видео:AVI
  • Видео:720x304 (2.37:1), 24.000 fps, XviD build 50 ~1958 kbps avg, 0.37 bit/pixel
  • Аудио: 48 kHz, MPEG Layer 3, 2 ch, ~128.00 kbps avg
  • Аудио 2: 48 kHz, MPEG Layer 3, 2 ch, ~128.00 kbps avg-

Отчёт MediaInfo

Полное имя : G:\000 Фильмы Экранки\Грэбберсы Grabbers (2012HDRip)\Grabbersy.2012.HDRip.
Формат : AVI
Формат/Информация : Audio Video Interleave
Размер файла : 1,46 Гбайт
Продолжительность : 1 ч. 33 м.
Общий поток : 2229 Кбит/сек
Программа кодирования : VirtualDubMod 1.5.10.2 (build 2540/release)
Библиотека кодирования : VirtualDubMod build 2540/release
Видео
Идентификатор : 0
Формат : MPEG-4 Visual
Профиль формата : Advanced Simple@L5
Параметр BVOP формата : 2
Параметр QPel формата : Нет
Параметр GMC формата : Без точки перехода
Параметр матрицы формата : Default (MPEG)
Идентификатор кодека : XVID
Идентификатор кодека/Подсказка : XviD
Продолжительность : 1 ч. 33 м.
Битрейт : 1959 Кбит/сек
Ширина : 720 пикселей
Высота : 304 пикселя
Соотношение сторон : 2,35:1
Частота кадров : 24,000 кадра/сек
Цветовое пространство : YUV
Субдискретизация насыщенности : 4:2:0
Битовая глубина : 8 бит
Тип развёртки : Прогрессивная
Метод сжатия : С потерями
Бит/(Пиксели*Кадры) : 0.373
Размер потока : 1,28 Гбайт (88%)
Библиотека кодирования : XviD 1.2.1 (UTC 2008-12-04)
Аудио #1
Идентификатор : 1
Формат : MPEG Audio
Версия формата : Version 1
Профиль формата : Layer 3
Режим : Joint stereo
Идентификатор кодека : 55
Идентификатор кодека/Подсказка : MP3
Продолжительность : 1 ч. 33 м.
Вид битрейта : Постоянный
Битрейт : 128 Кбит/сек
Каналы : 2 канала
Частота : 48,0 КГц
Метод сжатия : С потерями
Размер потока : 85,9 Мбайт (6%)
Выравнивание : Соединение по промежуткам
Продолжительность промежутка : 42 мс. (1,00 видеокадр)
Время предзагрузки промежутка : 504 мс.
Библиотека кодирования : LAME3.90.3
Аудио #2
Идентификатор : 2
Формат : MPEG Audio
Версия формата : Version 1
Профиль формата : Layer 3
Режим : Joint stereo
Расширение режима : MS Stereo
Идентификатор кодека : 55
Идентификатор кодека/Подсказка : MP3
Продолжительность : 1 ч. 33 м.
Вид битрейта : Постоянный
Битрейт : 128 Кбит/сек
Каналы : 2 канала
Частота : 48,0 КГц
Метод сжатия : С потерями
Размер потока : 85,9 Мбайт (6%)
Выравнивание : Соединение по промежуткам
Продолжительность промежутка : 42 мс. (1,00 видеокадр)
Время предзагрузки промежутка : 504 мс.
Библиотека кодирования : LAME3.90.3

Скриншоты




-© Оформление by Vetal
Показать сообщения:    

Текущее время: Сегодня 13:33

Часовой пояс: GMT



Вы не можете начинать темы
Вы не можете отвечать на сообщения
Вы не можете редактировать свои сообщения
Вы не можете удалять свои сообщения
Вы не можете голосовать в опросах
Вы не можете прикреплять файлы к сообщениям
Вы не можете скачивать файлы