Важное объявление!
У Нас Все раздачи мультитрекерные, при нуле пиров в релизах, можете смело вставать на закачку!
 
Автор Сообщение

HUNTER

Стаж:
4 года 4 месяца
Сообщений:
56765

Репутация: 101

[+] [-]
Вне форума [Профиль] [ЛС]

--
Груз 200
«Одиннадцатый фильм Алексея Балабанова»
--
Страна: Россия
Жанр: триллер, драма
Год выпуска: 2007
Продолжительность: 01:29:17-Перевод: не требуется
Cубтитры: русские, английские
Оригинальная аудиодорожка: русский-Режиссер: Алексей Балабанов
В ролях: Агния Кузнецова (Анжелика), Алексей Полуян (капитан Журов), Леонид Громов (профессор Артем), Алексей Серебряков (Алексей), Леонид Бичевин (Валера), Наталья Акимова (Антонина, жена Алексея), Юрий Степанов (Михаил), Михаил Скрябин (Сунька), Сергей Александров (майор Дуев), Валентина Андрюкова (мать Журова), Константин Балакирев (Коля Горбунов), Александр Баширов (алкоголик) и другие-Описание: СССР. 1984 год. Финал советской эпохи. Провинция. После дискотеки пропадает дочь секретаря райкома партии. Свидетелей нет. Виновные не обнаружены. В этот же вечер в доме на окраине города происходит жестокое убийство. Виновный — хозяин дома. Оба расследования поручены капитану милиции Журову…
- -Мировая премьера: 29 августа 2007 г. | Премьера Россия: 14 июня 2007 г.Бюджет: $570 000- -Тип релиза: BDRip 1080p
Контейнер: MKV
Видео: 1920x1080р (16:9), 23,976 fps, AVC ~ 12000 kbps avg, 0.241 bit/pixel
Аудио: 48 kHz, DTS 3/2 (L,C,R,l,r) + LFE ch ~ 1509 kbps avg

MediaInfo

Код:
Общее
Уникальный идентификатор                 : 185373985679025202778730299176699661020 (0x8B75BB225ADC3F409CAE0E8A10198ADC)
Полное имя                               : Gruz.200.2007.x264.BDRip.1080p.mkv
Формат                                   : Matroska
Версия формата                           : Version 4 / Version 2
Размер файла                             : 8,42 Гбайт
Продолжительность                        : 1 ч. 29 м.
Общий поток                              : 13,5 Мбит/сек
Название фильма                          : Gruz.200.2007.x264.BDRip.1080p
Дата кодирования                         : UTC 2014-11-19 17:54:01
Программа кодирования                    : mkvmerge v7.1.0 ('Good Love') 64bit built on Jul 27 2014 13:06:55
Библиотека кодирования                   : libebml v1.3.0 + libmatroska v1.4.1
Attachements                             : cover.jpg
Видео
Идентификатор                            : 1
Формат                                   : AVC
Формат/Информация                        : Advanced Video Codec
Профиль формата                          : High@L4.1
Параметр CABAC формата                   : Да
Параметр ReFrames формата                : 4 кадра
Идентификатор кодека                     : V_MPEG4/ISO/AVC
Продолжительность                        : 1 ч. 29 м.
Битрейт                                  : 12,0 Мбит/сек
Ширина                                   : 1920 пикселей
Высота                                   : 1080 пикселей
Соотношение сторон                       : 16:9
Режим частоты кадров                     : Постоянный
Частота кадров                           : 23,976 кадра/сек
Цветовое пространство                    : YUV
Субдискретизация насыщенности            : 4:2:0
Битовая глубина                          : 8 бит
Тип развёртки                            : Прогрессивная
Бит/(Пиксели*Кадры)                      : 0.241
Размер потока                            : 7,31 Гбайт (87%)
Заголовок                                : Gruz.200.2007.x264.BDRip.1080p
Библиотека кодирования                   : x264 core 115 r1936 7a9e08d
Настройки программы                      : cabac=1 / ref=4 / deblock=1:-1:-1 / analyse=0x3:0x133 / me=umh / subme=10 / psy=1 / psy_rd=1.00:0.10 / mixed_ref=1 / me_range=24 / chroma_me=1 / trellis=2 / 8x8dct=1 / cqm=0 / deadzone=21,11 / fast_pskip=0 / chroma_qp_offset=-3 / threads=9 / sliced_threads=0 / nr=0 / decimate=1 / interlaced=0 / bluray_compat=0 / constrained_intra=0 / bframes=10 / b_pyramid=2 / b_adapt=2 / b_bias=0 / direct=3 / weightb=1 / open_gop=0 / weightp=2 / keyint=250 / keyint_min=23 / scenecut=40 / intra_refresh=0 / rc_lookahead=50 / rc=2pass / mbtree=1 / bitrate=12000 / ratetol=1.0 / qcomp=0.70 / qpmin=0 / qpmax=69 / qpstep=4 / cplxblur=20.0 / qblur=0.5 / ip_ratio=1.40 / aq=1:1.00
Язык                                     : Russian
Default                                  : Да
Forced                                   : Нет
Аудио
Идентификатор                            : 2
Формат                                   : DTS
Формат/Информация                        : Digital Theater Systems
Режим                                    : 16
Параметр Endianness формата              : Big
Идентификатор кодека                     : A_DTS
Продолжительность                        : 1 ч. 29 м.
Вид битрейта                             : Постоянный
Битрейт                                  : 1509 Кбит/сек
Каналы                                   : 6 каналов
Расположение каналов                     : Front: L C R, Side: L R, LFE
Частота                                  : 48,0 КГц
Битовая глубина                          : 24 бит
Метод сжатия                             : С потерями
Размер потока                            : 964 Мбайт (11%)
Заголовок                                : DTS, 1510 kbps, Rus
Язык                                     : Russian
Default                                  : Да
Forced                                   : Да
Текст #1
Идентификатор                            : 3
Формат                                   : UTF-8
Идентификатор кодека                     : S_TEXT/UTF8
Идентификатор кодека/Информация          : UTF-8 Plain Text
Заголовок                                : Rus, SRT
Язык                                     : Russian
Default                                  : Да
Forced                                   : Нет
Текст #2
Идентификатор                            : 4
Формат                                   : UTF-8
Идентификатор кодека                     : S_TEXT/UTF8
Идентификатор кодека/Информация          : UTF-8 Plain Text
Заголовок                                : Eng, SRT
Язык                                     : English
Default                                  : Нет
Forced                                   : Нет

Интересные факты


»»» Главные роли писались специально под Евгения Миронова и Сергея Маковецкого. Оба актера отказались после прочтения сценария. Сергей Маковецкий посоветовал режиссеру картины Алексею Балабанову вообще отказаться от съемок этого фильма.
»»» От съёмок в фильме отказался Кирилл Пирогов.
»»» В конце фильма и в титрах звучит песня «Время есть, а денег нет» группы «Кино». Причём, в кадре группа (изображаемая актёрами) показана выступающей на сцене, но за кадром звучит студийная версия песни 1982 года.
»»» Съёмки картины проходили в окрестностях Выборга и в Череповце. Кроме того, часть материала пришлось отснять в студийных павильонах Санкт-Петербурга.
»»» Двумя основными песнями, несколько раз звучащими в фильме, являются Ариэль (ВИА) — В краю магнолий и Юрий Лоза — Плот.
»»» Сюжету «Груза 200» больше десяти лет. Алексей Балабанов поделился им с продюсером картины Сергеем Сельяновым еще при знакомстве на Высших курсах режиссеров и сценаристов.
»»» «Груз 200» отказались показывать на Берлинском и Каннском кинофестивалях.
»»» Фильм официально не рекомендован к показу на российских телеканалах.
»»» «Груз 200» стал первым российским фильмом, выпущенным не только на пленке, но и на цифровых носителях для кинотеатров, отличающихся более высоким качеством изображения.
»»» Одна из лучших книг на тему тоталитарного режима была написана Джорджем Оруэллом и называется «1984». Именно в 1984 г. происходит действие картины Балабанова.

Скриншоты




_________________
Показать сообщения:    

Текущее время: Сегодня 01:56

Часовой пояс: GMT



Вы не можете начинать темы
Вы не можете отвечать на сообщения
Вы не можете редактировать свои сообщения
Вы не можете удалять свои сообщения
Вы не можете голосовать в опросах
Вы не можете прикреплять файлы к сообщениям
Вы не можете скачивать файлы